Rating@Mail.ru
IPB
Etersoft - from Windows to Linux
Etersoft
решения для перехода
с Windows на Linux
Дружественные сайты: alv.me и Rus-Linux.net

Здравствуйте, гость ( Вход | Регистрация ) Поиск · 

> LinuxFormat

Уважаемые читатели!

Начиная с 26 апреля 2010 года, Официальный форум журнала "Linux Format" располагается по адресу http://forum.linuxformat.ru. Данный под-форум останется в сети, но будет доступен только для чтения.

Мы от души благодарим команду unixforum.org, предоставлявшую нашему журналу площадку для форума на протяжении почти пяти лет, и приглашаем всех заинтересованных читателей зарегистрироваться на нашем новом форуме, чтобы продолжить обсуждение журнала.

 
Reply to this topic Start new topic
> DVDStyler, Ошибка при выводе на DVD диск
starizin
Mar 14 2010, в 15:37
Сообщение #1


Прохожий
Иконка группы

Сообщений: 3

Вставить имя   :   Цитата

ОС: WINDOWS XP
Город: Краснокаьенск

Группа: Участники

Автор темы
Здравствуйте! В Linux я очень недавно.
Первый раз выписал журнал LXF. (Раньше почитывал от случая к случаю).
Привлекла внимание статья Энди Ченнела - DVDStyler: DVD для родни.
Попытался действовать по статье - не получилось.
При выводе на "Прожиг DVD" получаю следующее:

DVDStyler v1.7.2
FFmpeg: libavformat 52.31.0, libavcodec 52.20.0, libavutil 49.15.0
Подготовка
Очиститка каталога для временных файлов
Генерирование меню
Генерирование меню 1 из 1
Подготовка
Создание mpeg-файла для меню
Мультиплексация субтитлов (кнопок) в mpeg
Выполнении команды:spumux "/tmp/dvd/menu1-0.mpg_spumux.xml"
DVDAuthor::spumux, version 0.6.14.
Build options: gnugetopt magick iconv freetype
Send bugs to <dvdauthor-users@lists.sourceforge.net>
INFO: Locale=ru_RU.UTF-8
INFO: Converting filenames to UTF-8
STAT: 0:00:00.000
INFO: Picture /tmp/dvd/menu1-0.mpg_buttons.png had 2 colors
INFO: Picture /tmp/dvd/menu1-0.mpg_highlight.png had 2 colors
INFO: Picture /tmp/dvd/menu1-0.mpg_select.png had 2 colors
INFO: Pickbuttongroups, success with 1 groups, useimg=1
INFO: Found EOF in .sub file.
INFO: Max_sub_size=2388
INFO: 1 subtitles added, 0 subtitles skipped, stream: 32, offset: 0.50
Statistics:
- Processed 0 subtitles.
- The longest display line had -1 characters.
- The maximum number of displayed lines was 0.
- The normal display height of the font arial.ttf was 0.
- The bottom display height of the font arial.ttf was 0.
- The biggest subtitle box had 2388 bytes.
Транскодирование/ремультеплексация:
Транскодирование видеофайла:/home/vs/Видео/ВАЛЛ·И.avi
Input #0, avi, from '/home/vs/Видео/ВАЛЛ·И.avi':
Duration: 01:28:37.40, start: 0.000000, bitrate: 2082 kb/s
Stream #0.0: Video: mpeg4, yuv420p, 704x304 [PAR 1:1 DAR 44:19], 25 tbr, 25 tbn, 25 tbc
Stream #0.1: Audio: ac3, 48000 Hz, stereo, s16, 128 kb/s
Output #0, mpeg2video, to '/tmp/dvd/title0-0-0.vob.m2v':
Stream #0.0: Video: mpeg2video, yuv420p, 720x576 [PAR 176:95 DAR 44:19], q=2-31, 2000 kb/s, 90k tbn, 25 tbc
Output #1, mp2, to '/tmp/dvd/title0-0-0.vob.audio0':
Stream #1.0: Audio: mp2, 48000 Hz, stereo, s16, 224 kb/s
Stream mapping:
Stream #0.0 -> #0.0
Stream #0.1 -> #1.0
Warning vbv_delay will be set to 0xFFFF (=VBR) as the specified vbv buffer is too large for the given bitrate!
frame sync error
Error while decoding stream #0.1
frame= 49 fps= 0 q=1.6 size= 444kB time=1.92 bitrate=1893.8kbits/s
frame= 85 fps= 83 q=2.0 size= 863kB time=3.36 bitrate=2105.2kbits/s
frame= 123 fps= 80 q=2.0 size= 1254kB time=4.88 bitrate=2105.4kbits/s

Дальше идёт поток этих строк и потом получаю это:

Error while decoding stream #0.0
Error, Invalid timestamp=132924, last=132924
av_interleaved_write_frame(): Error while opening file
Error while decoding stream #0.0
Error, Invalid timestamp=132925, last=132925
av_interleaved_write_frame(): Error while opening file
Error while decoding stream #0.0
Error, Invalid timestamp=132926, last=132926
av_interleaved_write_frame(): Error while opening file
Error while decoding stream #0.0
Error, Invalid timestamp=132927, last=132927
av_interleaved_write_frame(): Error while opening file
Error while decoding stream #0.0
Error, Invalid timestamp=132928, last=132928
av_interleaved_write_frame(): Error while opening file
Error while decoding stream #0.0
Error, Invalid timestamp=132929, last=132929
av_interleaved_write_frame(): Error while opening file
Error while decoding stream #0.0
Error, Invalid timestamp=132930, last=132930
av_interleaved_write_frame(): Error while opening file
Error while decoding stream #0.0
Error, Invalid timestamp=132931, last=132931
av_interleaved_write_frame(): Error while opening file
Error while decoding stream #0.0
Error, Invalid timestamp=132932, last=132932
av_interleaved_write_frame(): Error while opening file
Error while decoding stream #0.0
Error, Invalid timestamp=132933, last=132933
av_interleaved_write_frame(): Error while opening file
frame=132934 fps= 31 q=2.0 Lsize= 931388kB time=4941.72 bitrate=1544.0kbits/s
video:931410kB audio:135125kB global headers:0kB muxing overhead -12.671636%
Мультиплексирование аудио и видео
Выполнении команды:mplex -f 8 -S 0 -M -V -o "/tmp/dvd/title0-0-0.vob" "/tmp/dvd/title0-0-0.vob.m2v" "/tmp/dvd/title0-0-0.vob.audio0"
INFO: [mplex] mplex version 1.9.0 (2.2.7 $Date: 2006/02/01 22:23:01 $)
INFO: [mplex] File /tmp/dvd/title0-0-0.vob.m2v looks like an MPEG Video stream.
INFO: [mplex] File /tmp/dvd/title0-0-0.vob.audio0 looks like an MPEG Audio stream.
INFO: [mplex] Video stream 0: profile 8 selected - ignoring non-standard options!
INFO: [mplex] Found 1 audio streams and 1 video streams
INFO: [mplex] Selecting dvdauthor DVD output profile
INFO: [mplex] Multiplexing video program stream!
INFO: [mplex] Scanning for header info: Video stream e0 (/tmp/dvd/title0-0-0.vob.m2v)
INFO: [mplex] VIDEO STREAM: e0
INFO: [mplex] Frame width : 720
INFO: [mplex] Frame height : 576
INFO: [mplex] Aspect ratio : 2.21:1 display
INFO: [mplex] Picture rate : 25.000 frames/sec
INFO: [mplex] Bit rate : 2000000 bits/sec
INFO: [mplex] Vbv buffer size : 229376 bytes
INFO: [mplex] CSPF : 0
INFO: [mplex] Scanning for header info: Audio stream c0 (/tmp/dvd/title0-0-0.vob.audio0)
INFO: [mplex] MPEG AUDIO STREAM: c0
INFO: [mplex] Audio version : 1.0
INFO: [mplex] Layer : 2
INFO: [mplex] CRC checksums : no
INFO: [mplex] Bit rate : 28672 bytes/sec (224 kbit/sec)
INFO: [mplex] Frequency : 48000 Hz
INFO: [mplex] Mode : 0 stereo
INFO: [mplex] Mode extension : 0
INFO: [mplex] Copyright bit : 0 no copyright
INFO: [mplex] Original/Copy : 1 original
INFO: [mplex] Emphasis : 0 none
INFO: [mplex] SYSTEMS/PROGRAM stream:
INFO: [mplex] rough-guess multiplexed stream data rate : 2276296
INFO: [mplex] target data-rate specified : 10080000
INFO: [mplex] Setting specified specified data rate: 10080000
INFO: [mplex] Run-in delay = 7200 Video delay = 7200 Audio delay = 10800
INFO: [mplex] New sequence commences...
INFO: [mplex] Video e0: buf= 0 frame=000000 sector=00000000
INFO: [mplex] Audio c0: buf= 0 frame=000000 sector=00000000
**ERROR: [mplex] Failed write: /tmp/dvd/title0-0-0.vob
Не удалось
Для информации: ОС Mandriva 2009.1 Free
Видио с расширением .avi
Помогите разобраться.
Спасибо.
Go to the top of the page
 
+Quote Post
Minton
Mar 14 2010, в 21:35
Сообщение #2


openSUSE Localization Team
Иконка группы

Сообщений: 1578

Вставить имя   :   Цитата

ОС: openSUSE Tumbleweed x86-64
Город: Санкт-Петербург

Группа: Участники

Первая версия "навскидку": закончилось место на /tmp


--------------------
Мы переехали: Русский раздел на forums.opensuse.org :)

"Настоящие мужчины используют поиск" ©Goodvin
Go to the top of the page
 
+Quote Post
starizin
Mar 24 2010, в 16:25
Сообщение #3


Прохожий
Иконка группы

Сообщений: 3

Вставить имя   :   Цитата

ОС: WINDOWS XP
Город: Краснокаьенск

Группа: Участники

Автор темы
Спасибо за быстрый ответ Minton, по Вашему совету увеличил кол-во места, правда в /tmp это сделать не получилось,
поэтому перенёс папку dvd, в которую идёт обработка материала, на windows раздел (файлов.система NTFS)
Файлы те же самые, места навалом, но снова ошибка! На этот раз другая, как я понимаю...

Транскодирование видеофайла:/mnt/win_c2/Детские/Пингвины/3. Таинственный обитатель(призрак в зоопарке).avi
Invalid and inefficient vfw-avi packed B frames detected

Seems stream 0 codec frame rate differs from container frame rate: 23.98 (65535/2733) -> 23.98 (2997/125)
Input #0, avi, from '/mnt/win_c2/Детские/Пингвины/3. Таинственный обитатель(призрак в зоопарке).avi':
Duration: 00:11:43.95, start: 0.000000, bitrate: 1813 kb/s
Stream #0.0: Video: mpeg4, yuv420p, 704x384 [PAR 1:1 DAR 11:6], 23.98 tbr, 23.98 tbn, 23.98 tbc
Stream #0.1: Audio: mp3, 48000 Hz, stereo, s16, 192 kb/s
Stream #0.2: Audio: mp3, 48000 Hz, stereo, s16, 192 kb/s
Stream #0.3: Audio: mp3, 48000 Hz, stereo, s16, 192 kb/s
Could not find input stream matching output stream #2.0
Ошибка транскодирования /mnt/win_c2/Детские/Пингвины/3. Таинственный обитатель(призрак в зоопарке).avi
Спасибо за поддержку.
С уважением starizin.
Go to the top of the page
 
+Quote Post
Val
Mar 25 2010, в 16:22
Сообщение #4


Редактор LXF
Иконка группы

Сообщений: 2211

Вставить имя   :   Цитата

Группа: ведущий рубрики

Цитата(starizin @ Mar 24 2010, в 18:25) *
Файлы те же самые, места навалом, но снова ошибка! На этот раз другая, как я понимаю...

На сей раз похоже на то, что mencoder не может обработать файл. Команда mplayer '/mnt/win_c2/Детские/Пингвины/3. Таинственный обитатель(призрак в зоопарке).avi' его нормально показывает, со звуком и прочим?


--------------------
"Если думаешь, говоришь, пишешь и подписываешь - не удивляйся." (с)
Go to the top of the page
 
+Quote Post
starizin
Mar 27 2010, в 13:40
Сообщение #5


Прохожий
Иконка группы

Сообщений: 3

Вставить имя   :   Цитата

ОС: WINDOWS XP
Город: Краснокаьенск

Группа: Участники

Автор темы
Т.е команду mplayer '/mnt/win_c2/Детские/Пингвины/3. Таинственный обитатель(призрак в зоопарке).avi нужно запустить в терминале?
Go to the top of the page
 
+Quote Post
vorchun
Mar 28 2010, в 09:13
Сообщение #6


Интересующийся новичок
Иконка группы

Сообщений: 73

Вставить имя   :   Цитата

ОС: Linux (сейчас Mandriva)
Город: Москва

Группа: Участники

Рискну предоположить, что "затык" происходит либо на кириллице в именах файлов (что уже почти невероятно, поскольку подавляющее большинство программ работают корректно), либо на пробелах в именах файлов.
Go to the top of the page
 
+Quote Post
Val
Mar 29 2010, в 08:12
Сообщение #7


Редактор LXF
Иконка группы

Сообщений: 2211

Вставить имя   :   Цитата

Группа: ведущий рубрики

Цитата(starizin @ Mar 27 2010, в 16:40) *
Т.е команду mplayer '/mnt/win_c2/Детские/Пингвины/3. Таинственный обитатель(призрак в зоопарке).avi нужно запустить в терминале?

Да. И про пробелы в именах файлов идея тоже может оказаться полезной (спасибо vorchun)


--------------------
"Если думаешь, говоришь, пишешь и подписываешь - не удивляйся." (с)
Go to the top of the page
 
+Quote Post

 Reply to this topic Start new topic
1 чел. читают эту тему (гостей: 1, скрытых пользователей: 0)
Пользователей: 0

 



RSS Текстовая версия Сейчас: 18th February 2018 - в 21:20




Rating@Mail.ru