nouveau настройка

nVidia, ATI, SIS, VIA и др.

Модератор: Модераторы разделов

Аватара пользователя
yoricI
Сообщения: 2383
ОС: gentoo fluxbox

nouveau настройка

Сообщение yoricI »

Здра!
Хотел посмотреть параметры модуля, и при автодополнении (по TAB) выскакивает ещё много модулей, которых на самом деле нет.
$ modinfo nouveau(тут ТАВ) nouveau nouveau_bo0039 nouveau_bo90b5 nouveau_display nouveau_fence nouveau_nvif nouveau_usif nouveau_abi16 nouveau_bo5039 nouveau_boa0b5 nouveau_dma nouveau_gem nouveau_prime nouveau_uvmm nouveau_acpi nouveau_bo74c1 nouveau_chan nouveau_dp nouveau_hwmon nouveau_sched nouveau_vga nouveau_bios nouveau_bo85b5 nouveau_connector nouveau_drm nouveau_mem nouveau_sgdma nouveau_vmm nouveau_bo nouveau_bo9039 nouveau_debugfs nouveau_exec nouveau.mod nouveau_ttm globus@aspera ~ $ modinfo nouveau_bios modinfo: ERROR: Module nouveau_bios not found.
Откуда они берутся?
Спасибо сказали:
Аватара пользователя
UnixNoob
Сообщения: 1380
ОС: Slackware

Re: nouveau настройка

Сообщение UnixNoob »

В /lib/modules смотрели?
"Однажды один очень мудрый человек… ничего не сказал. Времена были опасные, да и собеседники ненадёжные"
Спасибо сказали:
Аватара пользователя
yoricI
Сообщения: 2383
ОС: gentoo fluxbox

Re: nouveau настройка

Сообщение yoricI »

Естественно.
Добавлено (15:36):
/sys/kernel/debug/dri/0/pstate 03: core 50 MHz memory 135 MHz 07: core 405 MHz memory 324 MHz 0f: core 700 MHz memory 800 MHz AC: core 405 MHz memory 324 MHz
Никакой способ записи в него не проходит. Function not implemented. Хотя по логу Х-ов карта поддерживается. Конечно, может надо в ядре ещё что-то включить, например, ACPI DC-adapter, тогда появится строка DC. А если ещё что-то, то и запись в него пойдёт. Поиски продолжаю, ни шатко ни валко.
Спасибо сказали:
Аватара пользователя
RusWolf
Сообщения: 605
ОС: Arch Linux x64 на BTRFS

Re: nouveau настройка

Сообщение RusWolf »

yoricI писал:
27.01.2024 13:49
Откуда они берутся?
Спроси это у утилиты, которая у тебя делает авто-добавления по табу.
Спасибо сказали:
Аватара пользователя
Red Gremlin
Сообщения: 506
Статус: самоучка
ОС: Rosa 2016 Fresh

Re: nouveau настройка

Сообщение Red Gremlin »

yoricI писал:
27.01.2024 15:26
Хотя по логу Х-ов карта поддерживается
«Поддерживается карта» и «поддерживается реклокинг на этой карте» — это немного разные понятия. Если верить таблице, то у Ферми (пока?) не поддерживается установка частоты памяти, только частота ядра, поэтому через этот интерфейс изменить режим нельзя, т.к. это подразумевает изменение частот ядра и памяти одновременно.
"В мире есть случайность, есть предопределенность и есть то, что ты планируешь совершить."
Спасибо сказали:
Аватара пользователя
yoricI
Сообщения: 2383
ОС: gentoo fluxbox

Re: nouveau настройка

Сообщение yoricI »

Ладно, курю бамбук.
Добавлено (16:16):
Хотя, кто имеет дело с чатами ГПТ и прочими, могли бы и попросить))
Спасибо сказали:
Аватара пользователя
UnixNoob
Сообщения: 1380
ОС: Slackware

Re: nouveau настройка

Сообщение UnixNoob »

yoricI писал:
27.01.2024 15:26
Естественно.
Ну ответ на вопрос "где он ищет" скрыт где-то здесь, но для этого, я так понимаю, надо разобраться в том как работает команда complete в bash.
"Однажды один очень мудрый человек… ничего не сказал. Времена были опасные, да и собеседники ненадёжные"
Спасибо сказали:
Аватара пользователя
yoricI
Сообщения: 2383
ОС: gentoo fluxbox

Re: nouveau настройка

Сообщение yoricI »

ОБнаружил, что при переходе на nouveau перестало показывать видео в VLC. Звук есть, ползунок двигается и темнота. youtube показывает.
mediainfo1

Код: Выделить всё

 $ mediainfo vihr/vihr-walbro/IMG_4147.mp4 
General
Complete name                            : vihr/vihr-walbro/IMG_4147.mp4
Format                                   : MPEG-4
Format profile                           : Base Media / Version 2
Codec ID                                 : mp42 (isom/mp41/mp42)
File size                                : 35.5 MiB
Duration                                 : 1 min 23 s
Overall bit rate                         : 3 546 kb/s
Frame rate                               : 30.000 FPS
Recorded date                            : 2024-02-03T14:45:34+0300
Encoded date                             : 2024-02-03 12:06:57 UTC
Tagged date                              : 2024-02-03 12:07:13 UTC

Video
ID                                       : 2
Format                                   : AVC
Format/Info                              : Advanced Video Codec
Format profile                           : High@L3.1
Format settings                          : CABAC / 2 Ref Frames
Format settings, CABAC                   : Yes
Format settings, Reference frames        : 2 frames
Codec ID                                 : avc1
Codec ID/Info                            : Advanced Video Coding
Duration                                 : 1 min 23 s
Bit rate                                 : 3 337 kb/s
Width                                    : 1 280 pixels
Height                                   : 720 pixels
Display aspect ratio                     : 16:9
Frame rate mode                          : Constant
Frame rate                               : 30.000 FPS
Color space                              : YUV
Chroma subsampling                       : 4:2:0
Bit depth                                : 8 bits
Scan type                                : Progressive
Bits/(Pixel*Frame)                       : 0.121
Stream size                              : 33.4 MiB (94%)
Title                                    : Core Media Video
Encoded date                             : 2024-02-03 12:06:57 UTC
Tagged date                              : 2024-02-03 12:07:13 UTC
Color range                              : Limited
Color primaries                          : BT.709
Transfer characteristics                 : BT.709
Matrix coefficients                      : BT.709
Metas                                    : 3,4,5
Codec configuration box                  : avcC
mediainfo2

Код: Выделить всё

$ mediainfo Master\ i\ Margarita\ -\ 1s.avi 
General
Complete name                            : Master i Margarita - 1s.avi
Format                                   : AVI
Format/Info                              : Audio Video Interleave
Format settings                          : BitmapInfoHeader / WaveFormatEx
File size                                : 605 MiB
Duration                                 : 49 min 36 s
Overall bit rate                         : 1 706 kb/s
Frame rate                               : 25.000 FPS
Writing library                          : VirtualDub build 35491/release

Video
ID                                       : 0
Format                                   : MPEG-4 Visual
Format profile                           : Simple@L3
Format settings, BVOP                    : No
Format settings, QPel                    : No
Format settings, GMC                     : No warppoints
Format settings, Matrix                  : Default (H.263)
Codec ID                                 : XVID
Codec ID/Hint                            : XviD
Duration                                 : 49 min 36 s
Bit rate                                 : 1 440 kb/s
Width                                    : 720 pixels
Height                                   : 576 pixels
Display aspect ratio                     : 5:4
Frame rate                               : 25.000 FPS
Standard                                 : PAL
Color space                              : YUV
Chroma subsampling                       : 4:2:0
Bit depth                                : 8 bits
Scan type                                : Progressive
Compression mode                         : Lossy
Bits/(Pixel*Frame)                       : 0.139
Stream size                              : 511 MiB (84%)
Writing library                          : ZJMedia MPEG Encoder
vlc-flags

Код: Выделить всё

eix media-video/vlc
     Installed versions:  3.0.20-r3(0/5-9)^t(13:03:23 01.02.2024)(X a52 alsa dbus dts dvbpsi encode
 faad fdk ffmpeg flac gcrypt gui jpeg kate libass libnotify libsamplerate libtiger mad matroska mp3
 mpeg mtp musepack ogg opus png sdl-image speex ssl svg theora tremor truetype twolame udev
 v4l vaapi vdpau vpx xml -aom -archive -aribsub -bidi -bluray -cddb -chromaprint -chromecast -dav1d
 -dc1394 -debug -directx -dvd -fluidsynth -fontconfig -gme -gstreamer -ieee1394 -jack -keyring
 -libcaca -libtar -linsys -lirc -live -lua -macosx-notifications -modplug -ncurses -nfs -omxil
 -optimisememory -projectm -pulseaudio -rdp -run-as-root -samba -sftp -shout -sid -skins
 -soxr -srt -taglib -test -upnp -vnc -wayland -x264 -x265 -zeroconf -zvbi 
CPU_FLAGS_ARM="-neon" CPU_FLAGS_PPC="-altivec" CPU_FLAGS_X86="mmx sse"
 LUA_SINGLE_TARGET="lua5-1")
AVC XVID не показывает, а DIVX показывает.
Думаю, дело не в VLC, а где nouveau колупать на этот счёт?
Спасибо сказали:
Аватара пользователя
yoricI
Сообщения: 2383
ОС: gentoo fluxbox

Re: nouveau настройка

Сообщение yoricI »

Установил в VLC видео выход с АВТО на OpenGL - та же темнота со звуком, а на Х11 - заработало. Значит, OpenGL на nouveau у меня не работает, получается.
Спасибо сказали:
Аватара пользователя
Red Gremlin
Сообщения: 506
Статус: самоучка
ОС: Rosa 2016 Fresh

Re: nouveau настройка

Сообщение Red Gremlin »

yoricI писал:
05.02.2024 11:38
Думаю, дело не в VLC, а где nouveau колупать на этот счёт?
А дело, скорее всего, именно в VLC. На работе есть машинка с GF108 с nouveau в качестве драйвера, сегодня провёл пару экспериментов. Убедился, что действительно с H264 на настройках по умолчанию VLC показывает чёрный экран, сообщив в консоль об ошибке инициализации vdpau. Дальнейшие эксперименты проводил с более привычным мне mpv и выяснил, что 1) vdpau не работает с egl, 2) уже несколько лет в mpv gpu-context=x11egl по умолчанию (в иксах), поэтому для работы vdpau надо было запускать

Код: Выделить всё

mpv --vo=gpu --gpu-context=x11 --hwdec=vdpau
, 3) некоторое время назад разработчики обозвали gpu-context=x11 deprecated и отключили в официальных сборках (оставив пока код и возможность его включить при компиляции через опцию сборки), поэтому единственный способ включить в них vdpau —

Код: Выделить всё

mpv --vo=vdpau --hwdec=vdpau
(получив предупреждение, что так делать не надо), 4) в большинстве дистрибутивов следуют линии партии, поэтому они собирают его так же и их это точно так же касается. И nouveau тут совершенно не причём, на более новой видяшке с проприетарными драйверами vdpau в последних mpv ровно так же не работает, за аппаратное ускорение отвечает nvdec.
"В мире есть случайность, есть предопределенность и есть то, что ты планируешь совершить."
Спасибо сказали:
Аватара пользователя
yoricI
Сообщения: 2383
ОС: gentoo fluxbox

Re: nouveau настройка

Сообщение yoricI »

Я уже у VLC установил XVideo out (XCB), нагрузка проца по нолям в отличие от Х11.
Спасибо сказали: