ffmpeg avi во флеш

Разные проблемы звука, видео, обсуждение разных устройств и т.д.

Модератор: Модераторы разделов

soulhunter
Сообщения: 2

ffmpeg avi во флеш

Сообщение soulhunter »

Здравствуйте.

У меня следующая задача: конвертировать видео из avi, mkv во флеш (flv, f4v) при помощи ffmpeg без видимой потери качества (то есть полностью сохранять все параметры видео (fpb, bitrate, и т.д) без изменения, не уменьшать, не увеличивать, а просто переводить в формат, который сможет воспроизвести флеш), при этом желательно, чтобы получался минимально возможный размер файла, так как это будет смотреться с сайта через плеер. Суть этого в том, чтобы пользователь смог оценить качество видео файла, посмотрев его через флеш в браузере. Естественно, воспроизводиться будет не все видео, а только его кусок длинною в 60 секунд.
Я в этом недавно начал разбираться, и, как я понимаю, ситуация следующая:
flv - lossy формат, следовательно конвертировать в него без потери качества не получится?
f4v - формат, базирующийся на стандарте H264 и он позволит конвертировать без потери качества, но тут есть несколько мне непонятных вещей:
Я ввожу следующую команду
ffmpeg -i video.avi -acodec libfaac -ab 384000 -vcodec libx264 -vb 1396000 -t 60 -f flv -y video.f4v
ab и vb - соответственно такие же битрейты как и у начального видео фалйа
1. При этом библиотека libx264 выдает ошибку прося использовать preset. Как я понял - это некий набор параметров, но какой мне указывать?
2. При указании -vpre lossless_fast размер 60 секундного ролика получается 200мб, это мягко говоря, много! Ну и плюс, у получившегося файла плеер не показывает картинку, только звук идет.
Плеер нормальный, другие f4v ролики, скачанные в уже готовом виде воспроизводит нормально. ffmpeg версии SVN-r20373.

Подскажите, пожалуйста, правильно ли я делаю и если да, то что можно сделать, чтобы уменьшить размер f4v файла без видимой потери качества?
Спасибо сказали:
Аватара пользователя
mixrin
Сообщения: 155
ОС: gentoo ~amd64

Re: ffmpeg avi во флеш

Сообщение mixrin »

Учить терминологию, СРОЧНО. flv и f4v - всего лишь _контейнеры_, как mp4, mkv и множество других. Которые могут хранить видео стандарта H.264. Смотрите спецификации флеш-плеера и перегоняйте видео в нужные форматы с нужными параметрами. В крайнем случае берем в лапки mediainfo и смотрим что наш флеш-плеер может воспроизводить.
proud paludis user.
Спасибо сказали:
soulhunter
Сообщения: 2

Re: ffmpeg avi во флеш

Сообщение soulhunter »

Здравствуйте.
То, что flv, f4v и т.д. - это контейнеры, я знаю. Просто видимо кривенько написал, уже плохо соображал.
Насколько я понял в контейнере flv данные сжимаются в одноименном формате - flv, по крайней мере так показывает ffmpeg когда ставишь выходным файлом .flv, а так как этот формат lossy, то качество будет еще хуже, чем в avi файле, а мне качество нужно СОХРАНИТЬ, не улучшить, не ухудшить.
А вот для .f4v он не может автоматически подобрать кодек - пишет что неизвестный формат. Вот я указываю ему ручками аудио и видео кодеки, но вопрос в том, что он для кодека H.264 просит указать параметры, которые я не знаю что обозначают, поэтому и прошу если кто знает и сталкивался - пояснить какой мне preset выбрать, либо какие параметры указать вручную без него, для того чтобы качество получилось как в исходном avi файле.

Спасибо.
Спасибо сказали:
Аватара пользователя
mixrin
Сообщения: 155
ОС: gentoo ~amd64

Re: ffmpeg avi во флеш

Сообщение mixrin »

Можешь залить эти самые flv и f4v файлы куда-нибудь? Ну и сам флеш-плеер, потрогать, посмотрю.
proud paludis user.
Спасибо сказали:
Аватара пользователя
kpocobok
Сообщения: 92

Re: ffmpeg avi во флеш

Сообщение kpocobok »

Добрый день.
Появилась проблема на AS-MediaFlashPlayer.
На страничке стоит плеер. Воспроизводит нужные форматы,а именно flv и mp4.
Проблема заключается в буферизации. Формат flv прогружает и играет одновременно, а mp4 пока до конца не прогрузит не начнет играть.
Нашел ролик, который шел вместе с плеером в комплекте в mp4 формате. Его прогружает нормально и воспроизводит нормально. Все происходит одновременно.
Конвертирую самым обычным образом:

ffmpeg -i 1.vom 1.mp4

После такой конвертации плеер виснет и пока не загрузит весь ролик, проигрывать его не начнет.

Во вложенных файлах сам плеер .swf, html страница и скрин информации о двух файлах .mp4.
Слева (1.mp4) проигрывается и загружается одновременно, справа (2.mp4) пока не погрузится проигрываться не будет.

Подскажите пожалуйста в чем проблема? В плеере или в способе конвертации. И как в таком случаи правильно сконвертировать?
У вас нет необходимых прав для просмотра вложений в этом сообщении.
Спасибо сказали:
Ism
Сообщения: 1261
Статус: Никто, по сути быдло

Re: ffmpeg avi во флеш

Сообщение Ism »

У mp4 есть уровни кодирования, возможно плеер не может воспроизводить h264 кодированный по максимуму.
При кодировании для мобильных устройств у h264 есть некий буфер, который по умолчанию отключен
http://ru.wikipedia.org/wiki/H.264
http://www.videorip.info/x264/78-polnoe-op...ija-x264libx264
VBV buffer
Спасибо сказали:
Аватара пользователя
Bizdelnick
Модератор
Сообщения: 20872
Статус: nulla salus bello
ОС: Debian GNU/Linux

Re: ffmpeg avi во флеш

Сообщение Bizdelnick »

kpocobok писал(а):
22.10.2013 17:33
Конвертирую самым обычным образом:

ffmpeg -i 1.vom 1.mp4

Совершенно непонятно, какие параметры кодирования использует в таком случае ffmpeg (и даже какие кодеки). Покажите вывод ffmpeg -i 1.mp4 для кодированного таким образом файла.

Скорее всего, вот Ваша ошибка: http://stackoverflow.com/questions/1755877...loads-long-time. Добавление -movflags +faststart должно помочь.
Пишите правильно:
в консоли
вку́пе (с чем-либо)
в общем
вообще
в течение (часа)
новичок
нюанс
по умолчанию
приемлемо
проблема
пробовать
трафик
Спасибо сказали:
Ism
Сообщения: 1261
Статус: Никто, по сути быдло

Re: ffmpeg avi во флеш

Сообщение Ism »

Как пример кодирования ffmpeg мой набор скриптов. Но они заточены немного для другого
Терзания о кодеке h264
http://dartveider.pp.ua/my_files/other/VideoConvert.tar.gz
Спасибо сказали:
Аватара пользователя
kpocobok
Сообщения: 92

Re: ffmpeg avi во флеш

Сообщение kpocobok »

Добрый день.
Уже два дня бьюсь с одной проблемой. С помощью php загружается видео ролик, после загрузки он конвертируется с помощью ffmpeg и в конце появляется диалоговое окно с предложением сохранить.
Так вот все работало и было хорошо, пока не возникла такая вот штука: диалоговое окно перестало появляться, хотя ошибок в скрипте нет. Посмотрел файл error_log в апач и ужаснулся.

ffmpeg version 1.2.2 Copyright © 2000-2013 the FFmpeg developers
built on Aug 16 2013 12:54:44 with gcc 4.6.4 (Gentoo 4.6.4 p1.0, pie-0.5.2)
configuration: --prefix=/usr --libdir=/usr/lib64 --shlibdir=/usr/lib64 --mandir=/usr/share/man --enable-shared --cc=x86_64-pc-linux-gnu-gcc --cxx=x86_64-pc-linux-gnu-g++ --ar=x86_64-pc-linux-gnu-ar --optflags='-O2 -pipe -march=native -mtune=native -msse4.2' --extra-cflags='-O2 -pipe -march=native -mtune=native -msse4.2' --extra-cxxflags='-O2 -pipe -march=native -mtune=native -msse4.2' --disable-static --enable-gpl --enable-postproc --enable-avfilter --enable-avresample --disable-stripping --enable-version3 --disable-indev=v4l2 --disable-indev=alsa --disable-indev=oss --disable-indev=jack --disable-outdev=alsa --disable-outdev=oss --disable-outdev=sdl --enable-bzlib --disable-runtime-cpudetect --disable-debug --disable-doc --disable-gnutls --enable-hardcoded-tables --enable-iconv --disable-network --disable-openssl --disable-ffplay --disable-vaapi --disable-vdpau --enable-zlib --enable-libvo-aacenc --disable-libvo-amrwbenc --enable-libmp3lame --disable-libfdk-aac --disable-libaacplus --disable-libfaac --dis libavutil 52. 18.100 / 52. 18.100
libavcodec 54. 92.100 / 54. 92.100
libavformat 54. 63.104 / 54. 63.104
libavdevice 54. 3.103 / 54. 3.103
libavfilter 3. 42.103 / 3. 42.103
libswscale 2. 2.100 / 2. 2.100
libswresample 0. 17.102 / 0. 17.102
libpostproc 52. 2.100 / 52. 2.100
Input #0, mov,mp4,m4a,3gp,3g2,mj2, from './x2hjF3rw5Ti87yfKasQ87/v/14000677149848839125851.mp4':
Metadata:
major_brand : isom
minor_version : 512
compatible_brands: isomiso2avc1mp41
creation_time : 1970-01-01 00:00:00
encoder : Lavf52.40.0
Duration: 00:22:52.02, start: 0.000000, bitrate: 301 kb/s
Stream #0:0(jpn): Video: h264 (Constrained Baseline) (avc1 / 0x31637661), yuv420p, 320x180 [SAR 1:1 DAR 16:9], 169 kb/s, 23.98 fps, 25 tbr, 25 tbn, 50 tbc
Metadata:
creation_time : 1970-01-01 00:00:00
handler_name : VideoHandler
Stream #0:1(rus): Audio: aac (mp4a / 0x6134706D), 44100 Hz, stereo, fltp, 127 kb/s
Metadata:
creation_time : 1970-01-01 00:00:00
handler_name : SoundHandler
[libx264 @ 0x1091840] using SAR=1/1
[libx264 @ 0x1091840] using cpu capabilities: MMX2 SSE2Fast SSSE3 SSE4.2 AVX
[libx264 @ 0x1091840] profile High, level 1.2
[libx264 @ 0x1091840] 264 - core 135 - H.264/MPEG-4 AVC codec - Copyleft 2003-2013 - http://www.videolan.org/x264.html - options: cabac=1 ref=3 deblock=1:0:0 analyse=0x3:0x113 me=hex subme=7 psy=1 psy_rd=1.00:0.00 mixed_ref=1 me_range=16 chroma_me=1 trellis=1 8x8dct=1 cqm=0 deadzone=21,11 fast_pskip=1 chroma_qp_offset=-2 threads=18 lookahead_threads=1 sliced_threads=0 nr=0 decimate=1 interlaced=0 bluray_compat=0 constrained_intra=0 bframes=3 b_pyramid=2 b_adapt=1 b_bias=0 direct=1 weightb=1 open_gop=0 weightp=2 keyint=250 keyint_min=25 scenecut=40 intra_refresh=0 rc_lookahead=40 rc=crf mbtree=1 crf=23.0 qcomp=0.60 qpmin=0 qpmax=69 qpstep=4 ip_ratio=1.40 aq=1:1.00
Output #0, mp4, to './x2hjF3rw5Ti87yfKasQ87/v/14000677149848839125851.mp4.mp4':
Metadata:
major_brand : isom
minor_version : 512
compatible_brands: isomiso2avc1mp41
encoder : Lavf54.63.104
Stream #0:0(jpn): Video: h264 ([33][0][0][0] / 0x0021), yuv420p, 320x180 [SAR 1:1 DAR 16:9], q=-1--1, 12800 tbn, 25 tbc
Metadata:
creation_time : 1970-01-01 00:00:00
handler_name : VideoHandler
Stream #0:1(rus): Audio: aac ([64][0][0][0] / 0x0040), 44100 Hz, stereo, fltp, 128 kb/s
Metadata:
creation_time : 1970-01-01 00:00:00
handler_name : SoundHandler
Stream mapping:
Stream #0:0 -> #0:0 (h264 -> libx264)
Stream #0:1 -> #0:1 (aac -> aac)
Press [q] to stop, [?] for help
frame= 249 fps=0.0 q=28.0 size= 321kB time=00:00:10.44 bitrate= 251.8kbits/s dup=10 drop=0
frame= 515 fps=514 q=28.0 size= 677kB time=00:00:21.06 bitrate= 263.3kbits/s dup=21 drop=0
frame= 769 fps=512 q=28.0 size= 1210kB time=00:00:31.20 bitrate= 317.5kbits/s dup=31 drop=0
frame= 1039 fps=519 q=28.0 size= 1642kB time=00:00:42.00 bitrate= 320.2kbits/s dup=42 drop=0
frame= 1251 fps=500 q=28.0 size= 2143kB time=00:00:50.48 bitrate= 347.8kbits/s dup=51 drop=0
frame= 1499 fps=499 q=28.0 size= 2672kB time=00:01:00.41 bitrate= 362.2kbits/s dup=61 drop=0
frame= 1782 fps=509 q=28.0 size= 3170kB time=00:01:11.68 bitrate= 362.2kbits/s dup=73 drop=0
frame= 2071 fps=517 q=28.0 size= 3601kB time=00:01:23.28 bitrate= 354.1kbits/s dup=85 drop=0
frame= 2386 fps=530 q=28.0 size= 3990kB time=00:01:35.87 bitrate= 340.9kbits/s dup=98 drop=0
frame= 2641 fps=528 q=28.0 size= 4367kB time=00:01:46.11 bitrate= 337.1kbits/s dup=108 drop=0
frame= 2934 fps=533 q=28.0 size= 4655kB time=00:01:57.79 bitrate= 323.7kbits/s dup=120 drop=0
frame= 3215 fps=535 q=28.0 size= 4916kB time=00:02:09.03 bitrate= 312.1kbits/s dup=132 drop=0
frame= 3503 fps=539 q=28.0 size= 5199kB time=00:02:20.57 bitrate= 302.9kbits/s dup=143 drop=0
frame= 3782 fps=540 q=28.0 size= 5449kB time=00:02:31.71 bitrate= 294.2kbits/s dup=155 drop=0
frame= 4066 fps=542 q=28.0 size= 5714kB time=00:02:43.09 bitrate= 287.0kbits/s dup=166 drop=0
frame= 4356 fps=544 q=28.0 size= 6010kB time=00:02:54.68 bitrate= 281.8kbits/s dup=178 drop=0
frame= 4639 fps=545 q=28.0 size= 6259kB time=00:03:05.96 bitrate= 275.7kbits/s dup=190 drop=0
frame= 4928 fps=547 q=28.0 size= 6615kB time=00:03:17.53 bitrate= 274.3kbits/s dup=202 drop=0
frame= 5207 fps=548 q=28.0 size= 6838kB time=00:03:28.72 bitrate= 268.4kbits/s dup=213 drop=0
frame= 5506 fps=550 q=28.0 size= 7085kB time=00:03:40.72 bitrate= 263.0kbits/s dup=225 drop=0
frame= 5805 fps=553 q=28.0 size= 7358kB time=00:03:52.61 bitrate= 259.1kbits/s dup=238 drop=0
frame= 6100 fps=554 q=28.0 size= 7633kB time=00:04:04.41 bitrate= 255.8kbits/s dup=250 drop=0
frame= 6400 fps=556 q=28.0 size= 7954kB time=00:04:16.46 bitrate= 254.1kbits/s dup=262 drop=0
frame= 6703 fps=558 q=28.0 size= 8298kB time=00:04:28.60 bitrate= 253.1kbits/s dup=274 drop=0
frame= 6994 fps=559 q=28.0 size= 8622kB time=00:04:40.21 bitrate= 252.1kbits/s dup=286 drop=0
frame= 7304 fps=561 q=28.0 size= 8929kB time=00:04:52.59 bitrate= 250.0kbits/s dup=299 drop=0
frame= 7601 fps=563 q=28.0 size= 9232kB time=00:05:04.52 bitrate= 248.3kbits/s dup=311 drop=0
frame= 7893 fps=563 q=28.0 size= 9653kB time=00:05:16.18 bitrate= 250.1kbits/s dup=323 drop=0
frame= 8176 fps=563 q=28.0 size= 10098kB time=00:05:27.44 bitrate= 252.6kbits/s dup=335 drop=0
frame= 8476 fps=565 q=28.0 size= 10412kB time=00:05:39.47 bitrate= 251.3kbits/s dup=347 drop=0
frame= 8781 fps=566 q=28.0 size= 10702kB time=00:05:51.68 bitrate= 249.3kbits/s dup=360 drop=0
frame= 9074 fps=567 q=28.0 size= 11031kB time=00:06:03.39 bitrate= 248.7kbits/s dup=372 drop=0
frame= 9283 fps=562 q=28.0 size= 11342kB time=00:06:11.77 bitrate= 249.9kbits/s dup=380 drop=0
frame= 9567 fps=562 q=28.0 size= 11696kB time=00:06:23.10 bitrate= 250.1kbits/s dup=392 drop=0
frame= 9869 fps=563 q=28.0 size= 11974kB time=00:06:35.20 bitrate= 248.2kbits/s dup=404 drop=0
frame=10171 fps=565 q=28.0 size= 12231kB time=00:06:47.32 bitrate= 246.0kbits/s dup=416 drop=0
frame=10456 fps=565 q=28.0 size= 12521kB time=00:06:58.67 bitrate= 245.0kbits/s dup=428 drop=0
frame=10748 fps=565 q=28.0 size= 12779kB time=00:07:10.35 bitrate= 243.3kbits/s dup=440 drop=0
frame=11042 fps=566 q=28.0 size= 13078kB time=00:07:22.15 bitrate= 242.3kbits/s dup=452 drop=0
frame=11339 fps=566 q=28.0 size= 13374kB time=00:07:33.99 bitrate= 241.3kbits/s dup=464 drop=0
frame=11643 fps=567 q=28.0 size= 13638kB time=00:07:46.11 bitrate= 239.7kbits/s dup=477 drop=0
frame=11936 fps=568 q=28.0 size= 13880kB time=00:07:57.88 bitrate= 237.9kbits/s dup=489 drop=0
frame=12231 fps=568 q=28.0 size= 14099kB time=00:08:09.66 bitrate= 235.9kbits/s dup=501 drop=0
frame=12538 fps=569 q=28.0 size= 14398kB time=00:08:21.99 bitrate= 235.0kbits/s dup=513 drop=0
frame=12850 fps=571 q=28.0 size= 14677kB time=00:08:34.48 bitrate= 233.7kbits/s dup=526 drop=0
frame=13155 fps=571 q=28.0 size= 14955kB time=00:08:46.62 bitrate= 232.6kbits/s dup=539 drop=0
frame=13453 fps=572 q=28.0 size= 15212kB time=00:08:58.56 bitrate= 231.4kbits/s dup=551 drop=0
frame=13740 fps=572 q=28.0 size= 15491kB time=00:09:10.03 bitrate= 230.7kbits/s dup=563 drop=0
frame=14045 fps=573 q=28.0 size= 15778kB time=00:09:22.27 bitrate= 229.9kbits/s dup=575 drop=0
frame=14340 fps=573 q=28.0 size= 16086kB time=00:09:34.09 bitrate= 229.5kbits/s dup=587 drop=0
frame=14641 fps=574 q=28.0 size= 16388kB time=00:09:46.09 bitrate= 229.1kbits/s dup=600 drop=0
frame=14943 fps=574 q=28.0 size= 16744kB time=00:09:58.14 bitrate= 229.3kbits/s dup=612 drop=0
frame=15227 fps=574 q=28.0 size= 17016kB time=00:10:09.47 bitrate= 228.7kbits/s dup=624 drop=0
frame=15521 fps=574 q=28.0 size= 17352kB time=00:10:21.29 bitrate= 228.8kbits/s dup=636 drop=0
frame=15813 fps=575 q=28.0 size= 17660kB time=00:10:32.92 bitrate= 228.6kbits/s dup=648 drop=0
frame=16102 fps=575 q=28.0 size= 17968kB time=00:10:44.56 bitrate= 228.4kbits/s dup=659 drop=0
frame=16360 fps=574 q=28.0 size= 18350kB time=00:10:54.87 bitrate= 229.6kbits/s dup=670 drop=0
frame=16639 fps=573 q=28.0 size= 18653kB time=00:11:06.04 bitrate= 229.4kbits/s dup=681 drop=0
frame=16934 fps=574 q=28.0 size= 18997kB time=00:11:17.81 bitrate= 229.6kbits/s dup=693 drop=0
frame=17233 fps=574 q=28.0 size= 19277kB time=00:11:29.72 bitrate= 229.0kbits/s dup=706 drop=0
frame=17534 fps=574 q=28.0 size= 19557kB time=00:11:41.79 bitrate= 228.3kbits/s dup=718 drop=0
frame=17825 fps=575 q=28.0 size= 19901kB time=00:11:53.45 bitrate= 228.5kbits/s dup=730 drop=0
frame=18122 fps=575 q=28.0 size= 20155kB time=00:12:05.36 bitrate= 227.6kbits/s dup=742 drop=0
frame=18411 fps=575 q=28.0 size= 20449kB time=00:12:16.88 bitrate= 227.3kbits/s dup=754 drop=0
frame=18676 fps=574 q=28.0 size= 20740kB time=00:12:27.49 bitrate= 227.3kbits/s dup=765 drop=0
frame=18955 fps=574 q=28.0 size= 21076kB time=00:12:38.66 bitrate= 227.6kbits/s dup=776 drop=0
frame=19234 fps=574 q=28.0 size= 21370kB time=00:12:49.78 bitrate= 227.4kbits/s dup=788 drop=0
frame=19520 fps=574 q=28.0 size= 21706kB time=00:13:01.25 bitrate= 227.6kbits/s dup=799 drop=0
frame=19803 fps=574 q=28.0 size= 22080kB time=00:13:12.56 bitrate= 228.2kbits/s dup=811 drop=0
frame=20101 fps=574 q=28.0 size= 22377kB time=00:13:24.52 bitrate= 227.9kbits/s dup=823 drop=0
frame=20401 fps=574 q=28.0 size= 22609kB time=00:13:36.52 bitrate= 226.8kbits/s dup=835 drop=0
frame=20708 fps=575 q=28.0 size= 22884kB time=00:13:48.81 bitrate= 226.2kbits/s dup=848 drop=0
frame=21013 fps=575 q=28.0 size= 23257kB time=00:14:00.95 bitrate= 226.6kbits/s dup=861 drop=0
frame=21300 fps=575 q=28.0 size= 23586kB time=00:14:12.45 bitrate= 226.7kbits/s dup=872 drop=0
frame=21590 fps=575 q=28.0 size= 23856kB time=00:14:24.08 bitrate= 226.2kbits/s dup=884 drop=0
frame=21885 fps=575 q=25.0 size= 24218kB time=00:14:35.87 bitrate= 226.5kbits/s dup=896 drop=0
frame=22176 fps=576 q=28.0 size= 24563kB time=00:14:47.48 bitrate= 226.7kbits/s dup=908 drop=0
frame=22491 fps=576 q=28.0 size= 24890kB time=00:15:00.12 bitrate= 226.5kbits/s dup=921 drop=0
frame=22793 fps=577 q=28.0 size= 25234kB time=00:15:12.19 bitrate= 226.6kbits/s dup=933 drop=0
frame=23099 fps=577 q=28.0 size= 25455kB time=00:15:24.38 bitrate= 225.6kbits/s dup=946 drop=0
frame=23408 fps=578 q=28.0 size= 25717kB time=00:15:36.76 bitrate= 224.9kbits/s dup=959 drop=0
frame=23717 fps=578 q=28.0 size= 26005kB time=00:15:49.11 bitrate= 224.5kbits/s dup=971 drop=0
frame=24016 fps=578 q=28.0 size= 26294kB time=00:16:01.05 bitrate= 224.1kbits/s dup=984 drop=0
frame=24305 fps=578 q=28.0 size= 26563kB time=00:16:12.63 bitrate= 223.7kbits/s dup=995 drop=0
frame=24602 fps=578 q=28.0 size= 26813kB time=00:16:24.52 bitrate= 223.1kbits/s dup=1008 drop=0
frame=24898 fps=579 q=28.0 size= 27063kB time=00:16:36.34 bitrate= 222.5kbits/s dup=1020 drop=0
frame=25169 fps=578 q=28.0 size= 27398kB time=00:16:47.18 bitrate= 222.8kbits/s dup=1031 drop=0
frame=25461 fps=578 q=28.0 size= 27700kB time=00:16:58.84 bitrate= 222.7kbits/s dup=1043 drop=0
frame=25714 fps=577 q=28.0 size= 27997kB time=00:17:09.01 bitrate= 222.9kbits/s dup=1053 drop=0
frame=25992 fps=577 q=28.0 size= 28312kB time=00:17:20.11 bitrate= 223.0kbits/s dup=1064 drop=0
frame=26252 fps=577 q=28.0 size= 28621kB time=00:17:30.56 bitrate= 223.2kbits/s dup=1075 drop=0
frame=26531 fps=576 q=28.0 size= 28903kB time=00:17:41.68 bitrate= 223.0kbits/s dup=1087 drop=0
frame=26805 fps=576 q=28.0 size= 29200kB time=00:17:52.62 bitrate= 223.0kbits/s dup=1098 drop=0
frame=27046 fps=575 q=28.0 size= 29541kB time=00:18:02.23 bitrate= 223.6kbits/s dup=1108 drop=0
frame=27341 fps=575 q=28.0 size= 29796kB time=00:18:14.07 bitrate= 223.1kbits/s dup=1120 drop=0
frame=27636 fps=575 q=28.0 size= 30100kB time=00:18:25.87 bitrate= 223.0kbits/s dup=1132 drop=0
frame=27923 fps=575 q=28.0 size= 30398kB time=00:18:37.36 bitrate= 222.9kbits/s dup=1144 drop=0
frame=28213 fps=575 q=28.0 size= 30656kB time=00:18:49.00 bitrate= 222.4kbits/s dup=1155 drop=0
frame=28500 fps=575 q=28.0 size= 30969kB time=00:19:00.44 bitrate= 222.5kbits/s dup=1167 drop=0
frame=28796 fps=575 q=28.0 size= 31254kB time=00:19:12.31 bitrate= 222.2kbits/s dup=1179 drop=0
frame=29090 fps=576 q=28.0 size= 31511kB time=00:19:24.08 bitrate= 221.7kbits/s dup=1191 drop=0
frame=29383 fps=576 q=28.0 size= 31772kB time=00:19:35.76 bitrate= 221.4kbits/s dup=1203 drop=0
frame=29686 fps=576 q=28.0 size= 32046kB time=00:19:47.84 bitrate= 221.0kbits/s dup=1216 drop=0
frame=29989 fps=576 q=28.0 size= 32317kB time=00:20:00.00 bitrate= 220.6kbits/s dup=1228 drop=0
frame=30286 fps=576 q=28.0 size= 32555kB time=00:20:11.91 bitrate= 220.1kbits/s dup=1240 drop=0
frame=30596 fps=577 q=28.0 size= 32805kB time=00:20:24.29 bitrate= 219.5kbits/s dup=1253 drop=0
frame=30894 fps=577 q=28.0 size= 33094kB time=00:20:36.23 bitrate= 219.3kbits/s dup=1265 drop=0
frame=31181 fps=577 q=28.0 size= 33358kB time=00:20:47.67 bitrate= 219.0kbits/s dup=1277 drop=0
frame=31478 fps=577 q=28.0 size= 33630kB time=00:20:59.58 bitrate= 218.7kbits/s dup=1289 drop=0
frame=31758 fps=577 q=28.0 size= 33917kB time=00:21:10.73 bitrate= 218.7kbits/s dup=1301 drop=0
frame=32027 fps=577 q=28.0 size= 34264kB time=00:21:21.50 bitrate= 219.0kbits/s dup=1312 drop=0
frame=32306 fps=576 q=28.0 size= 34692kB time=00:21:32.67 bitrate= 219.9kbits/s dup=1323 drop=0
frame=32608 fps=577 q=28.0 size= 35028kB time=00:21:44.79 bitrate= 219.9kbits/s dup=1335 drop=0
frame=32926 fps=577 q=28.0 size= 35417kB time=00:21:57.52 bitrate= 220.2kbits/s dup=1348 drop=0
frame=33225 fps=577 q=28.0 size= 35976kB time=00:22:09.41 bitrate= 221.7kbits/s dup=1361 drop=0
frame=33520 fps=577 q=28.0 size= 36575kB time=00:22:21.20 bitrate= 223.4kbits/s dup=1373 drop=0
frame=33802 fps=577 q=28.0 size= 36897kB time=00:22:32.53 bitrate= 223.5kbits/s dup=1384 drop=0
frame=34089 fps=577 q=28.0 size= 37225kB time=00:22:44.00 bitrate= 223.6kbits/s dup=1396 drop=0
Starting second pass: moving header on top of the file
frame=34300 fps=576 q=-1.0 Lsize= 38581kB time=00:22:52.02 bitrate= 230.4kbits/s dup=1405 drop=0
video:16050kB audio:21435kB subtitle:0 global headers:0kB muxing overhead 2.923717%
[libx264 @ 0x1091840] frame I:449 Avg QP:18.71 size: 5129
[libx264 @ 0x1091840] frame P:13391 Avg QP:22.08 size: 885
[libx264 @ 0x1091840] frame B:20460 Avg QP:24.52 size: 112
[libx264 @ 0x1091840] consecutive B-frames: 15.6% 11.8% 8.9% 63.8%
[libx264 @ 0x1091840] mb I I16..4: 16.4% 32.6% 51.0%
[libx264 @ 0x1091840] mb P I16..4: 1.8% 3.8% 2.2% P16..4: 27.2% 9.9% 5.2% 0.0% 0.0% skip:49.9%
[libx264 @ 0x1091840] mb B I16..4: 0.1% 0.1% 0.1% B16..8: 18.4% 1.3% 0.2% direct: 0.4% skip:79.3% L0:46.9% L1:50.7% BI: 2.4%
[libx264 @ 0x1091840] 8x8 transform intra:44.2% inter:60.3%
[libx264 @ 0x1091840] coded y,uvDC,uvAC intra: 51.2% 62.2% 23.9% inter: 5.3% 6.1% 0.5%
[libx264 @ 0x1091840] i16 v,h,dc,p: 35% 28% 10% 27%
[libx264 @ 0x1091840] i8 v,h,dc,ddl,ddr,vr,hd,vl,hu: 28% 17% 24% 5% 5% 5% 4% 5% 6%
[libx264 @ 0x1091840] i4 v,h,dc,ddl,ddr,vr,hd,vl,hu: 33% 15% 13% 7% 7% 7% 6% 7% 5%
[libx264 @ 0x1091840] i8c dc,h,v,p: 51% 19% 22% 7%
[libx264 @ 0x1091840] Weighted P-Frames: Y:4.2% UV:2.2%
[libx264 @ 0x1091840] ref P L0: 63.4% 11.1% 14.9% 10.3% 0.3%
[libx264 @ 0x1091840] ref B L0: 81.0% 14.4% 4.6%
[libx264 @ 0x1091840] ref B L1: 93.1% 6.9%
[libx264 @ 0x1091840] kb/s:95.83
ffmpeg version 1.2.2 Copyright © 2000-2013 the FFmpeg developers
built on Aug 16 2013 12:54:44 with gcc 4.6.4 (Gentoo 4.6.4 p1.0, pie-0.5.2)
configuration: --prefix=/usr --libdir=/usr/lib64 --shlibdir=/usr/lib64 --mandir=/usr/share/man --enable-shared --cc=x86_64-pc-linux-gnu-gcc --cxx=x86_64-pc-linux-gnu-g++ --ar=x86_64-pc-linux-gnu-ar --optflags='-O2 -pipe -march=native -mtune=native -msse4.2' --extra-cflags='-O2 -pipe -march=native -mtune=native -msse4.2' --extra-cxxflags='-O2 -pipe -march=native -mtune=native -msse4.2' --disable-static --enable-gpl --enable-postproc --enable-avfilter --enable-avresample --disable-stripping --enable-version3 --disable-indev=v4l2 --disable-indev=alsa --disable-indev=oss --disable-indev=jack --disable-outdev=alsa --disable-outdev=oss --disable-outdev=sdl --enable-bzlib --disable-runtime-cpudetect --disable-debug --disable-doc --disable-gnutls --enable-hardcoded-tables --enable-iconv --disable-network --disable-openssl --disable-ffplay --disable-vaapi --disable-vdpau --enable-zlib --enable-libvo-aacenc --disable-libvo-amrwbenc --enable-libmp3lame --disable-libfdk-aac --disable-libaacplus --disable-libfaac --dis libavutil 52. 18.100 / 52. 18.100
libavcodec 54. 92.100 / 54. 92.100
libavformat 54. 63.104 / 54. 63.104
libavdevice 54. 3.103 / 54. 3.103
libavfilter 3. 42.103 / 3. 42.103
libswscale 2. 2.100 / 2. 2.100
libswresample 0. 17.102 / 0. 17.102
libpostproc 52. 2.100 / 52. 2.100
Input #0, mov,mp4,m4a,3gp,3g2,mj2, from './x2hjF3rw5Ti87yfKasQ87/v/14000677149848839125851.mp4':
Metadata:
major_brand : isom
minor_version : 512
compatible_brands: isomiso2avc1mp41
creation_time : 1970-01-01 00:00:00
encoder : Lavf52.40.0
Duration: 00:22:52.02, start: 0.000000, bitrate: 301 kb/s
Stream #0:0(jpn): Video: h264 (Constrained Baseline) (avc1 / 0x31637661), yuv420p, 320x180 [SAR 1:1 DAR 16:9], 169 kb/s, 23.98 fps, 25 tbr, 25 tbn, 50 tbc
Metadata:
creation_time : 1970-01-01 00:00:00
handler_name : VideoHandler
Stream #0:1(rus): Audio: aac (mp4a / 0x6134706D), 44100 Hz, stereo, fltp, 127 kb/s
Metadata:
creation_time : 1970-01-01 00:00:00
handler_name : SoundHandler
Output #0, image2, to './x2hjF3rw5Ti87yfKasQ87/video_cover/1408059853.jpg':
Metadata:
major_brand : isom
minor_version : 512
compatible_brands: isomiso2avc1mp41
encoder : Lavf54.63.104
Stream #0:0(jpn): Video: mjpeg, yuvj420p, 320x180 [SAR 1:1 DAR 16:9], q=2-31, 200 kb/s, 90k tbn, 1 tbc
Metadata:
creation_time : 1970-01-01 00:00:00
handler_name : VideoHandler
Stream mapping:
Stream #0:0 -> #0:0 (h264 -> mjpeg)
Press [q] to stop, [?] for help
frame= 0 fps=0.0 q=0.0 size=N/A time=00:00:00.00 bitrate=N/A
frame= 0 fps=0.0 q=0.0 size=N/A time=00:00:00.00 bitrate=N/A
frame= 0 fps=0.0 q=0.0 size=N/A time=00:00:00.00 bitrate=N/A
frame= 0 fps=0.0 q=0.0 size=N/A time=00:00:00.00 bitrate=N/A
frame= 0 fps=0.0 q=0.0 size=N/A time=00:00:00.00 bitrate=N/A
frame= 0 fps=0.0 q=0.0 size=N/A time=00:00:00.00 bitrate=N/A
frame= 0 fps=0.0 q=0.0 size=N/A time=00:00:00.00 bitrate=N/A
frame= 1 fps=0.3 q=0.0 Lsize=N/A time=00:00:01.00 bitrate=N/A
video:4kB audio:0kB subtitle:0 global headers:0kB muxing overhead -100.501482%
ffmpeg version 1.2.2 Copyright © 2000-2013 the FFmpeg developers
built on Aug 16 2013 12:54:44 with gcc 4.6.4 (Gentoo 4.6.4 p1.0, pie-0.5.2)
configuration: --prefix=/usr --libdir=/usr/lib64 --shlibdir=/usr/lib64 --mandir=/usr/share/man --enable-shared --cc=x86_64-pc-linux-gnu-gcc --cxx=x86_64-pc-linux-gnu-g++ --ar=x86_64-pc-linux-gnu-ar --optflags='-O2 -pipe -march=native -mtune=native -msse4.2' --extra-cflags='-O2 -pipe -march=native -mtune=native -msse4.2' --extra-cxxflags='-O2 -pipe -march=native -mtune=native -msse4.2' --disable-static --enable-gpl --enable-postproc --enable-avfilter --enable-avresample --disable-stripping --enable-version3 --disable-indev=v4l2 --disable-indev=alsa --disable-indev=oss --disable-indev=jack --disable-outdev=alsa --disable-outdev=oss --disable-outdev=sdl --enable-bzlib --disable-runtime-cpudetect --disable-debug --disable-doc --disable-gnutls --enable-hardcoded-tables --enable-iconv --disable-network --disable-openssl --disable-ffplay --disable-vaapi --disable-vdpau --enable-zlib --enable-libvo-aacenc --disable-libvo-amrwbenc --enable-libmp3lame --disable-libfdk-aac --disable-libaacplus --disable-libfaac --dis libavutil 52. 18.100 / 52. 18.100
libavcodec 54. 92.100 / 54. 92.100
libavformat 54. 63.104 / 54. 63.104
libavdevice 54. 3.103 / 54. 3.103
libavfilter 3. 42.103 / 3. 42.103
libswscale 2. 2.100 / 2. 2.100
libswresample 0. 17.102 / 0. 17.102
libpostproc 52. 2.100 / 52. 2.100
Input #0, mov,mp4,m4a,3gp,3g2,mj2, from './x2hjF3rw5Ti87yfKasQ87/v/14000677149848839125851.mp4':
Metadata:
major_brand : isom
minor_version : 512
compatible_brands: isomiso2avc1mp41
creation_time : 1970-01-01 00:00:00
encoder : Lavf52.40.0
Duration: 00:22:52.02, start: 0.000000, bitrate: 301 kb/s
Stream #0:0(jpn): Video: h264 (Constrained Baseline) (avc1 / 0x31637661), yuv420p, 320x180 [SAR 1:1 DAR 16:9], 169 kb/s, 23.98 fps, 25 tbr, 25 tbn, 50 tbc
Metadata:
creation_time : 1970-01-01 00:00:00
handler_name : VideoHandler
Stream #0:1(rus): Audio: aac (mp4a / 0x6134706D), 44100 Hz, stereo, fltp, 127 kb/s
Metadata:
creation_time : 1970-01-01 00:00:00
handler_name : SoundHandler
Output #0, image2, to './x2hjF3rw5Ti87yfKasQ87/video_cover/326644202.jpg':
Metadata:
major_brand : isom
minor_version : 512
compatible_brands: isomiso2avc1mp41
encoder : Lavf54.63.104
Stream #0:0(jpn): Video: mjpeg, yuvj420p, 320x180 [SAR 1:1 DAR 16:9], q=2-31, 200 kb/s, 90k tbn, 1 tbc
Metadata:
creation_time : 1970-01-01 00:00:00
handler_name : VideoHandler
Stream mapping:
Stream #0:0 -> #0:0 (h264 -> mjpeg)
Press [q] to stop, [?] for help
frame= 0 fps=0.0 q=0.0 size=N/A time=00:00:00.00 bitrate=N/A
frame= 0 fps=0.0 q=0.0 size=N/A time=00:00:00.00 bitrate=N/A
frame= 0 fps=0.0 q=0.0 size=N/A time=00:00:00.00 bitrate=N/A
frame= 0 fps=0.0 q=0.0 size=N/A time=00:00:00.00 bitrate=N/A
frame= 0 fps=0.0 q=0.0 size=N/A time=00:00:00.00 bitrate=N/A
frame= 0 fps=0.0 q=0.0 size=N/A time=00:00:00.00 bitrate=N/A
frame= 0 fps=0.0 q=0.0 size=N/A time=00:00:00.00 bitrate=N/A
frame= 0 fps=0.0 q=0.0 size=N/A time=00:00:00.00 bitrate=N/A
frame= 0 fps=0.0 q=0.0 size=N/A time=00:00:00.00 bitrate=N/A
frame= 0 fps=0.0 q=0.0 size=N/A time=00:00:00.00 bitrate=N/A
frame= 0 fps=0.0 q=0.0 size=N/A time=00:00:00.00 bitrate=N/A
frame= 0 fps=0.0 q=0.0 size=N/A time=00:00:00.00 bitrate=N/A
frame= 0 fps=0.0 q=0.0 size=N/A time=00:00:00.00 bitrate=N/A
frame= 0 fps=0.0 q=0.0 size=N/A time=00:00:00.00 bitrate=N/A
frame= 0 fps=0.0 q=0.0 size=N/A time=00:00:00.00 bitrate=N/A
frame= 0 fps=0.0 q=0.0 size=N/A time=00:00:00.00 bitrate=N/A
frame= 0 fps=0.0 q=0.0 size=N/A time=00:00:00.00 bitrate=N/A
frame= 0 fps=0.0 q=0.0 size=N/A time=00:00:00.00 bitrate=N/A
frame= 0 fps=0.0 q=0.0 size=N/A time=00:00:00.00 bitrate=N/A
frame= 0 fps=0.0 q=0.0 size=N/A time=00:00:00.00 bitrate=N/A
frame= 0 fps=0.0 q=0.0 size=N/A time=00:00:00.00 bitrate=N/A
frame= 0 fps=0.0 q=0.0 size=N/A time=00:00:00.00 bitrate=N/A
frame= 0 fps=0.0 q=0.0 size=N/A time=00:00:00.00 bitrate=N/A
frame= 0 fps=0.0 q=0.0 size=N/A time=00:00:00.00 bitrate=N/A
frame= 0 fps=0.0 q=0.0 size=N/A time=00:00:00.00 bitrate=N/A
frame= 1 fps=0.1 q=0.0 Lsize=N/A time=00:00:01.00 bitrate=N/A
video:11kB audio:0kB subtitle:0 global headers:0kB muxing overhead -100.196271%
ffmpeg version 1.2.2 Copyright © 2000-2013 the FFmpeg developers
built on Aug 16 2013 12:54:44 with gcc 4.6.4 (Gentoo 4.6.4 p1.0, pie-0.5.2)
configuration: --prefix=/usr --libdir=/usr/lib64 --shlibdir=/usr/lib64 --mandir=/usr/share/man --enable-shared --cc=x86_64-pc-linux-gnu-gcc --cxx=x86_64-pc-linux-gnu-g++ --ar=x86_64-pc-linux-gnu-ar --optflags='-O2 -pipe -march=native -mtune=native -msse4.2' --extra-cflags='-O2 -pipe -march=native -mtune=native -msse4.2' --extra-cxxflags='-O2 -pipe -march=native -mtune=native -msse4.2' --disable-static --enable-gpl --enable-postproc --enable-avfilter --enable-avresample --disable-stripping --enable-version3 --disable-indev=v4l2 --disable-indev=alsa --disable-indev=oss --disable-indev=jack --disable-outdev=alsa --disable-outdev=oss --disable-outdev=sdl --enable-bzlib --disable-runtime-cpudetect --disable-debug --disable-doc --disable-gnutls --enable-hardcoded-tables --enable-iconv --disable-network --disable-openssl --disable-ffplay --disable-vaapi --disable-vdpau --enable-zlib --enable-libvo-aacenc --disable-libvo-amrwbenc --enable-libmp3lame --disable-libfdk-aac --disable-libaacplus --disable-libfaac --dis libavutil 52. 18.100 / 52. 18.100
libavcodec 54. 92.100 / 54. 92.100
libavformat 54. 63.104 / 54. 63.104
libavdevice 54. 3.103 / 54. 3.103
libavfilter 3. 42.103 / 3. 42.103
libswscale 2. 2.100 / 2. 2.100
libswresample 0. 17.102 / 0. 17.102
libpostproc 52. 2.100 / 52. 2.100
Input #0, mov,mp4,m4a,3gp,3g2,mj2, from './x2hjF3rw5Ti87yfKasQ87/v/14000677149848839125851.mp4':
Metadata:
major_brand : isom
minor_version : 512
compatible_brands: isomiso2avc1mp41
creation_time : 1970-01-01 00:00:00
encoder : Lavf52.40.0
Duration: 00:22:52.02, start: 0.000000, bitrate: 301 kb/s
Stream #0:0(jpn): Video: h264 (Constrained Baseline) (avc1 / 0x31637661), yuv420p, 320x180 [SAR 1:1 DAR 16:9], 169 kb/s, 23.98 fps, 25 tbr, 25 tbn, 50 tbc
Metadata:
creation_time : 1970-01-01 00:00:00
handler_name : VideoHandler
Stream #0:1(rus): Audio: aac (mp4a / 0x6134706D), 44100 Hz, stereo, fltp, 127 kb/s
Metadata:
creation_time : 1970-01-01 00:00:00
handler_name : SoundHandler
Output #0, image2, to './x2hjF3rw5Ti87yfKasQ87/video_cover/1960436531.jpg':
Metadata:
major_brand : isom
minor_version : 512
compatible_brands: isomiso2avc1mp41
encoder : Lavf54.63.104
Stream #0:0(jpn): Video: mjpeg, yuvj420p, 320x180 [SAR 1:1 DAR 16:9], q=2-31, 200 kb/s, 90k tbn, 1 tbc
Metadata:
creation_time : 1970-01-01 00:00:00
handler_name : VideoHandler
Stream mapping:
Stream #0:0 -> #0:0 (h264 -> mjpeg)
Press [q] to stop, [?] for help
frame= 0 fps=0.0 q=0.0 size=N/A time=00:00:00.00 bitrate=N/A
frame= 0 fps=0.0 q=0.0 size=N/A time=00:00:00.00 bitrate=N/A
frame= 0 fps=0.0 q=0.0 size=N/A time=00:00:00.00 bitrate=N/A
frame= 0 fps=0.0 q=0.0 size=N/A time=00:00:00.00 bitrate=N/A
frame= 0 fps=0.0 q=0.0 size=N/A time=00:00:00.00 bitrate=N/A
frame= 0 fps=0.0 q=0.0 size=N/A time=00:00:00.00 bitrate=N/A
frame= 0 fps=0.0 q=0.0 size=N/A time=00:00:00.00 bitrate=N/A
frame= 0 fps=0.0 q=0.0 size=N/A time=00:00:00.00 bitrate=N/A
frame= 0 fps=0.0 q=0.0 size=N/A time=00:00:00.00 bitrate=N/A
frame= 0 fps=0.0 q=0.0 size=N/A time=00:00:00.00 bitrate=N/A
frame= 0 fps=0.0 q=0.0 size=N/A time=00:00:00.00 bitrate=N/A
frame= 0 fps=0.0 q=0.0 size=N/A time=00:00:00.00 bitrate=N/A
frame= 0 fps=0.0 q=0.0 size=N/A time=00:00:00.00 bitrate=N/A
frame= 0 fps=0.0 q=0.0 size=N/A time=00:00:00.00 bitrate=N/A
frame= 0 fps=0.0 q=0.0 size=N/A time=00:00:00.00 bitrate=N/A
frame= 0 fps=0.0 q=0.0 size=N/A time=00:00:00.00 bitrate=N/A
frame= 0 fps=0.0 q=0.0 size=N/A time=00:00:00.00 bitrate=N/A
frame= 0 fps=0.0 q=0.0 size=N/A time=00:00:00.00 bitrate=N/A
frame= 0 fps=0.0 q=0.0 size=N/A time=00:00:00.00 bitrate=N/A
frame= 0 fps=0.0 q=0.0 size=N/A time=00:00:00.00 bitrate=N/A
frame= 0 fps=0.0 q=0.0 size=N/A time=00:00:00.00 bitrate=N/A
frame= 0 fps=0.0 q=0.0 size=N/A time=00:00:00.00 bitrate=N/A
frame= 0 fps=0.0 q=0.0 size=N/A time=00:00:00.00 bitrate=N/A
frame= 0 fps=0.0 q=0.0 size=N/A time=00:00:00.00 bitrate=N/A
frame= 0 fps=0.0 q=0.0 size=N/A time=00:00:00.00 bitrate=N/A
frame= 0 fps=0.0 q=0.0 size=N/A time=00:00:00.00 bitrate=N/A
frame= 0 fps=0.0 q=0.0 size=N/A time=00:00:00.00 bitrate=N/A
frame= 0 fps=0.0 q=0.0 size=N/A time=00:00:00.00 bitrate=N/A
frame= 0 fps=0.0 q=0.0 size=N/A time=00:00:00.00 bitrate=N/A
frame= 0 fps=0.0 q=0.0 size=N/A time=00:00:00.00 bitrate=N/A
frame= 0 fps=0.0 q=0.0 size=N/A time=00:00:00.00 bitrate=N/A
frame= 0 fps=0.0 q=0.0 size=N/A time=00:00:00.00 bitrate=N/A
frame= 0 fps=0.0 q=0.0 size=N/A time=00:00:00.00 bitrate=N/A
frame= 0 fps=0.0 q=0.0 size=N/A time=00:00:00.00 bitrate=N/A
frame= 0 fps=0.0 q=0.0 size=N/A time=00:00:00.00 bitrate=N/A
frame= 0 fps=0.0 q=0.0 size=N/A time=00:00:00.00 bitrate=N/A
frame= 0 fps=0.0 q=0.0 size=N/A time=00:00:00.00 bitrate=N/A
frame= 0 fps=0.0 q=0.0 size=N/A time=00:00:00.00 bitrate=N/A
frame= 0 fps=0.0 q=0.0 size=N/A time=00:00:00.00 bitrate=N/A
frame= 0 fps=0.0 q=0.0 size=N/A time=00:00:00.00 bitrate=N/A
frame= 0 fps=0.0 q=0.0 size=N/A time=00:00:00.00 bitrate=N/A
frame= 0 fps=0.0 q=0.0 size=N/A time=00:00:00.00 bitrate=N/A
frame= 0 fps=0.0 q=0.0 size=N/A time=00:00:00.00 bitrate=N/A
frame= 0 fps=0.0 q=0.0 size=N/A time=00:00:00.00 bitrate=N/A
frame= 0 fps=0.0 q=0.0 size=N/A time=00:00:00.00 bitrate=N/A
frame= 0 fps=0.0 q=0.0 size=N/A time=00:00:00.00 bitrate=N/A
frame= 0 fps=0.0 q=0.0 size=N/A time=00:00:00.00 bitrate=N/A
frame= 0 fps=0.0 q=0.0 size=N/A time=00:00:00.00 bitrate=N/A
frame= 0 fps=0.0 q=0.0 size=N/A time=00:00:00.00 bitrate=N/A
frame= 1 fps=0.0 q=0.0 Lsize=N/A time=00:00:01.00 bitrate=N/A
video:6kB audio:0kB subtitle:0 global headers:0kB muxing overhead -100.343857%
ffmpeg version 1.2.2 Copyright © 2000-2013 the FFmpeg developers
built on Aug 16 2013 12:54:44 with gcc 4.6.4 (Gentoo 4.6.4 p1.0, pie-0.5.2)
configuration: --prefix=/usr --libdir=/usr/lib64 --shlibdir=/usr/lib64 --mandir=/usr/share/man --enable-shared --cc=x86_64-pc-linux-gnu-gcc --cxx=x86_64-pc-linux-gnu-g++ --ar=x86_64-pc-linux-gnu-ar --optflags='-O2 -pipe -march=native -mtune=native -msse4.2' --extra-cflags='-O2 -pipe -march=native -mtune=native -msse4.2' --extra-cxxflags='-O2 -pipe -march=native -mtune=native -msse4.2' --disable-static --enable-gpl --enable-postproc --enable-avfilter --enable-avresample --disable-stripping --enable-version3 --disable-indev=v4l2 --disable-indev=alsa --disable-indev=oss --disable-indev=jack --disable-outdev=alsa --disable-outdev=oss --disable-outdev=sdl --enable-bzlib --disable-runtime-cpudetect --disable-debug --disable-doc --disable-gnutls --enable-hardcoded-tables --enable-iconv --disable-network --disable-openssl --disable-ffplay --disable-vaapi --disable-vdpau --enable-zlib --enable-libvo-aacenc --disable-libvo-amrwbenc --enable-libmp3lame --disable-libfdk-aac --disable-libaacplus --disable-libfaac --dis libavutil 52. 18.100 / 52. 18.100
libavcodec 54. 92.100 / 54. 92.100
libavformat 54. 63.104 / 54. 63.104
libavdevice 54. 3.103 / 54. 3.103
libavfilter 3. 42.103 / 3. 42.103
libswscale 2. 2.100 / 2. 2.100
libswresample 0. 17.102 / 0. 17.102
libpostproc 52. 2.100 / 52. 2.100
Input #0, mov,mp4,m4a,3gp,3g2,mj2, from './x2hjF3rw5Ti87yfKasQ87/v/14000677149848839125851.mp4':
Metadata:
major_brand : isom
minor_version : 512
compatible_brands: isomiso2avc1mp41
creation_time : 1970-01-01 00:00:00
encoder : Lavf52.40.0
Duration: 00:22:52.02, start: 0.000000, bitrate: 301 kb/s
Stream #0:0(jpn): Video: h264 (Constrained Baseline) (avc1 / 0x31637661), yuv420p, 320x180 [SAR 1:1 DAR 16:9], 169 kb/s, 23.98 fps, 25 tbr, 25 tbn, 50 tbc
Metadata:
creation_time : 1970-01-01 00:00:00
handler_name : VideoHandler
Stream #0:1(rus): Audio: aac (mp4a / 0x6134706D), 44100 Hz, stereo, fltp, 127 kb/s
Metadata:
creation_time : 1970-01-01 00:00:00
handler_name : SoundHandler
Output #0, image2, to './x2hjF3rw5Ti87yfKasQ87/video_cover/1432784557.jpg':
Metadata:
major_brand : isom
minor_version : 512
compatible_brands: isomiso2avc1mp41
encoder : Lavf54.63.104
Stream #0:0(jpn): Video: mjpeg, yuvj420p, 320x180 [SAR 1:1 DAR 16:9], q=2-31, 200 kb/s, 90k tbn, 1 tbc
Metadata:
creation_time : 1970-01-01 00:00:00
handler_name : VideoHandler
Stream mapping:
Stream #0:0 -> #0:0 (h264 -> mjpeg)
Press [q] to stop, [?] for help
frame= 0 fps=0.0 q=0.0 size=N/A time=00:00:00.00 bitrate=N/A
frame= 0 fps=0.0 q=0.0 size=N/A time=00:00:00.00 bitrate=N/A
frame= 0 fps=0.0 q=0.0 size=N/A time=00:00:00.00 bitrate=N/A
frame= 0 fps=0.0 q=0.0 size=N/A time=00:00:00.00 bitrate=N/A
frame= 0 fps=0.0 q=0.0 size=N/A time=00:00:00.00 bitrate=N/A
frame= 0 fps=0.0 q=0.0 size=N/A time=00:00:00.00 bitrate=N/A
frame= 0 fps=0.0 q=0.0 size=N/A time=00:00:00.00 bitrate=N/A
frame= 0 fps=0.0 q=0.0 size=N/A time=00:00:00.00 bitrate=N/A
frame= 0 fps=0.0 q=0.0 size=N/A time=00:00:00.00 bitrate=N/A
frame= 0 fps=0.0 q=0.0 size=N/A time=00:00:00.00 bitrate=N/A
frame= 0 fps=0.0 q=0.0 size=N/A time=00:00:00.00 bitrate=N/A
frame= 0 fps=0.0 q=0.0 size=N/A time=00:00:00.00 bitrate=N/A
frame= 0 fps=0.0 q=0.0 size=N/A time=00:00:00.00 bitrate=N/A
frame= 0 fps=0.0 q=0.0 size=N/A time=00:00:00.00 bitrate=N/A
frame= 0 fps=0.0 q=0.0 size=N/A time=00:00:00.00 bitrate=N/A
frame= 0 fps=0.0 q=0.0 size=N/A time=00:00:00.00 bitrate=N/A
frame= 0 fps=0.0 q=0.0 size=N/A time=00:00:00.00 bitrate=N/A
frame= 0 fps=0.0 q=0.0 size=N/A time=00:00:00.00 bitrate=N/A
frame= 0 fps=0.0 q=0.0 size=N/A time=00:00:00.00 bitrate=N/A
frame= 0 fps=0.0 q=0.0 size=N/A time=00:00:00.00 bitrate=N/A
frame= 0 fps=0.0 q=0.0 size=N/A time=00:00:00.00 bitrate=N/A
frame= 0 fps=0.0 q=0.0 size=N/A time=00:00:00.00 bitrate=N/A
frame= 0 fps=0.0 q=0.0 size=N/A time=00:00:00.00 bitrate=N/A
frame= 0 fps=0.0 q=0.0 size=N/A time=00:00:00.00 bitrate=N/A
frame= 0 fps=0.0 q=0.0 size=N/A time=00:00:00.00 bitrate=N/A
frame= 0 fps=0.0 q=0.0 size=N/A time=00:00:00.00 bitrate=N/A
frame= 0 fps=0.0 q=0.0 size=N/A time=00:00:00.00 bitrate=N/A
frame= 0 fps=0.0 q=0.0 size=N/A time=00:00:00.00 bitrate=N/A
frame= 0 fps=0.0 q=0.0 size=N/A time=00:00:00.00 bitrate=N/A
frame= 0 fps=0.0 q=0.0 size=N/A time=00:00:00.00 bitrate=N/A
frame= 0 fps=0.0 q=0.0 size=N/A time=00:00:00.00 bitrate=N/A
frame= 0 fps=0.0 q=0.0 size=N/A time=00:00:00.00 bitrate=N/A
frame= 0 fps=0.0 q=0.0 size=N/A time=00:00:00.00 bitrate=N/A
frame= 0 fps=0.0 q=0.0 size=N/A time=00:00:00.00 bitrate=N/A
frame= 0 fps=0.0 q=0.0 size=N/A time=00:00:00.00 bitrate=N/A
frame= 0 fps=0.0 q=0.0 size=N/A time=00:00:00.00 bitrate=N/A
frame= 0 fps=0.0 q=0.0 size=N/A time=00:00:00.00 bitrate=N/A
frame= 0 fps=0.0 q=0.0 size=N/A time=00:00:00.00 bitrate=N/A
frame= 0 fps=0.0 q=0.0 size=N/A time=00:00:00.00 bitrate=N/A
frame= 0 fps=0.0 q=0.0 size=N/A time=00:00:00.00 bitrate=N/A
frame= 0 fps=0.0 q=0.0 size=N/A time=00:00:00.00 bitrate=N/A
frame= 0 fps=0.0 q=0.0 size=N/A time=00:00:00.00 bitrate=N/A
frame= 0 fps=0.0 q=0.0 size=N/A time=00:00:00.00 bitrate=N/A
frame= 0 fps=0.0 q=0.0 size=N/A time=00:00:00.00 bitrate=N/A
frame= 0 fps=0.0 q=0.0 size=N/A time=00:00:00.00 bitrate=N/A
frame= 0 fps=0.0 q=0.0 size=N/A time=00:00:00.00 bitrate=N/A
frame= 0 fps=0.0 q=0.0 size=N/A time=00:00:00.00 bitrate=N/A
frame= 0 fps=0.0 q=0.0 size=N/A time=00:00:00.00 bitrate=N/A
frame= 0 fps=0.0 q=0.0 size=N/A time=00:00:00.00 bitrate=N/A
frame= 0 fps=0.0 q=0.0 size=N/A time=00:00:00.00 bitrate=N/A
frame= 0 fps=0.0 q=0.0 size=N/A time=00:00:00.00 bitrate=N/A
frame= 0 fps=0.0 q=0.0 size=N/A time=00:00:00.00 bitrate=N/A
frame= 0 fps=0.0 q=0.0 size=N/A time=00:00:00.00 bitrate=N/A
frame= 0 fps=0.0 q=0.0 size=N/A time=00:00:00.00 bitrate=N/A
frame= 0 fps=0.0 q=0.0 size=N/A time=00:00:00.00 bitrate=N/A
frame= 0 fps=0.0 q=0.0 size=N/A time=00:00:00.00 bitrate=N/A
frame= 0 fps=0.0 q=0.0 size=N/A time=00:00:00.00 bitrate=N/A
frame= 0 fps=0.0 q=0.0 size=N/A time=00:00:00.00 bitrate=N/A
frame= 0 fps=0.0 q=0.0 size=N/A time=00:00:00.00 bitrate=N/A
frame= 0 fps=0.0 q=0.0 size=N/A time=00:00:00.00 bitrate=N/A
frame= 0 fps=0.0 q=0.0 size=N/A time=00:00:00.00 bitrate=N/A
frame= 0 fps=0.0 q=0.0 size=N/A time=00:00:00.00 bitrate=N/A
frame= 0 fps=0.0 q=0.0 size=N/A time=00:00:00.00 bitrate=N/A
frame= 0 fps=0.0 q=0.0 size=N/A time=00:00:00.00 bitrate=N/A
frame= 0 fps=0.0 q=0.0 size=N/A time=00:00:00.00 bitrate=N/A
frame= 0 fps=0.0 q=0.0 size=N/A time=00:00:00.00 bitrate=N/A
frame= 0 fps=0.0 q=0.0 size=N/A time=00:00:00.00 bitrate=N/A
frame= 0 fps=0.0 q=0.0 size=N/A time=00:00:00.00 bitrate=N/A
frame= 0 fps=0.0 q=0.0 size=N/A time=00:00:00.00 bitrate=N/A
frame= 0 fps=0.0 q=0.0 size=N/A time=00:00:00.00 bitrate=N/A
frame= 0 fps=0.0 q=0.0 size=N/A time=00:00:00.00 bitrate=N/A
frame= 0 fps=0.0 q=0.0 size=N/A time=00:00:00.00 bitrate=N/A
frame= 0 fps=0.0 q=0.0 size=N/A time=00:00:00.00 bitrate=N/A
frame= 0 fps=0.0 q=0.0 size=N/A time=00:00:00.00 bitrate=N/A
frame= 0 fps=0.0 q=0.0 size=N/A time=00:00:00.00 bitrate=N/A
frame= 0 fps=0.0 q=0.0 size=N/A time=00:00:00.00 bitrate=N/A
frame= 1 fps=0.0 q=0.0 Lsize=N/A time=00:00:01.00 bitrate=N/A
video:8kB audio:0kB subtitle:0 global headers:0kB muxing overhead -100.270204%
ffmpeg version 1.2.2 Copyright © 2000-2013 the FFmpeg developers
built on Aug 16 2013 12:54:44 with gcc 4.6.4 (Gentoo 4.6.4 p1.0, pie-0.5.2)
configuration: --prefix=/usr --libdir=/usr/lib64 --shlibdir=/usr/lib64 --mandir=/usr/share/man --enable-shared --cc=x86_64-pc-linux-gnu-gcc --cxx=x86_64-pc-linux-gnu-g++ --ar=x86_64-pc-linux-gnu-ar --optflags='-O2 -pipe -march=native -mtune=native -msse4.2' --extra-cflags='-O2 -pipe -march=native -mtune=native -msse4.2' --extra-cxxflags='-O2 -pipe -march=native -mtune=native -msse4.2' --disable-static --enable-gpl --enable-postproc --enable-avfilter --enable-avresample --disable-stripping --enable-version3 --disable-indev=v4l2 --disable-indev=alsa --disable-indev=oss --disable-indev=jack --disable-outdev=alsa --disable-outdev=oss --disable-outdev=sdl --enable-bzlib --disable-runtime-cpudetect --disable-debug --disable-doc --disable-gnutls --enable-hardcoded-tables --enable-iconv --disable-network --disable-openssl --disable-ffplay --disable-vaapi --disable-vdpau --enable-zlib --enable-libvo-aacenc --disable-libvo-amrwbenc --enable-libmp3lame --disable-libfdk-aac --disable-libaacplus --disable-libfaac --dis libavutil 52. 18.100 / 52. 18.100
libavcodec 54. 92.100 / 54. 92.100
libavformat 54. 63.104 / 54. 63.104
libavdevice 54. 3.103 / 54. 3.103
libavfilter 3. 42.103 / 3. 42.103
libswscale 2. 2.100 / 2. 2.100
libswresample 0. 17.102 / 0. 17.102
libpostproc 52. 2.100 / 52. 2.100
Input #0, mov,mp4,m4a,3gp,3g2,mj2, from './x2hjF3rw5Ti87yfKasQ87/v/14000677149848839125851.mp4':
Metadata:
major_brand : isom
minor_version : 512
compatible_brands: isomiso2avc1mp41
creation_time : 1970-01-01 00:00:00
encoder : Lavf52.40.0
Duration: 00:22:52.02, start: 0.000000, bitrate: 301 kb/s
Stream #0:0(jpn): Video: h264 (Constrained Baseline) (avc1 / 0x31637661), yuv420p, 320x180 [SAR 1:1 DAR 16:9], 169 kb/s, 23.98 fps, 25 tbr, 25 tbn, 50 tbc
Metadata:
creation_time : 1970-01-01 00:00:00
handler_name : VideoHandler
Stream #0:1(rus): Audio: aac (mp4a / 0x6134706D), 44100 Hz, stereo, fltp, 127 kb/s
Metadata:
creation_time : 1970-01-01 00:00:00
handler_name : SoundHandler
File './x2hjF3rw5Ti87yfKasQ87/v/14000677149848839125851.mp4.mp4' already exists. Overwrite ? [y/N] Not overwriting - exiting
ffmpeg version 1.2.2 Copyright © 2000-2013 the FFmpeg developers
built on Aug 16 2013 12:54:44 with gcc 4.6.4 (Gentoo 4.6.4 p1.0, pie-0.5.2)
configuration: --prefix=/usr --libdir=/usr/lib64 --shlibdir=/usr/lib64 --mandir=/usr/share/man --enable-shared --cc=x86_64-pc-linux-gnu-gcc --cxx=x86_64-pc-linux-gnu-g++ --ar=x86_64-pc-linux-gnu-ar --optflags='-O2 -pipe -march=native -mtune=native -msse4.2' --extra-cflags='-O2 -pipe -march=native -mtune=native -msse4.2' --extra-cxxflags='-O2 -pipe -march=native -mtune=native -msse4.2' --disable-static --enable-gpl --enable-postproc --enable-avfilter --enable-avresample --disable-stripping --enable-version3 --disable-indev=v4l2 --disable-indev=alsa --disable-indev=oss --disable-indev=jack --disable-outdev=alsa --disable-outdev=oss --disable-outdev=sdl --enable-bzlib --disable-runtime-cpudetect --disable-debug --disable-doc --disable-gnutls --enable-hardcoded-tables --enable-iconv --disable-network --disable-openssl --disable-ffplay --disable-vaapi --disable-vdpau --enable-zlib --enable-libvo-aacenc --disable-libvo-amrwbenc --enable-libmp3lame --disable-libfdk-aac --disable-libaacplus --disable-libfaac --dis libavutil 52. 18.100 / 52. 18.100
libavcodec 54. 92.100 / 54. 92.100
libavformat 54. 63.104 / 54. 63.104
libavdevice 54. 3.103 / 54. 3.103
libavfilter 3. 42.103 / 3. 42.103
libswscale 2. 2.100 / 2. 2.100
libswresample 0. 17.102 / 0. 17.102
libpostproc 52. 2.100 / 52. 2.100
Input #0, mov,mp4,m4a,3gp,3g2,mj2, from './x2hjF3rw5Ti87yfKasQ87/v/14000677149848839125851.mp4':
Metadata:
major_brand : isom
minor_version : 512
compatible_brands: isomiso2avc1mp41
creation_time : 1970-01-01 00:00:00
encoder : Lavf52.40.0
Duration: 00:22:52.02, start: 0.000000, bitrate: 301 kb/s
Stream #0:0(jpn): Video: h264 (Constrained Baseline) (avc1 / 0x31637661), yuv420p, 320x180 [SAR 1:1 DAR 16:9], 169 kb/s, 23.98 fps, 25 tbr, 25 tbn, 50 tbc
Metadata:
creation_time : 1970-01-01 00:00:00
handler_name : VideoHandler
Stream #0:1(rus): Audio: aac (mp4a / 0x6134706D), 44100 Hz, stereo, fltp, 127 kb/s
Metadata:
creation_time : 1970-01-01 00:00:00
handler_name : SoundHandler
Output #0, image2, to './x2hjF3rw5Ti87yfKasQ87/video_cover/949918182.jpg':
Metadata:
major_brand : isom
minor_version : 512
compatible_brands: isomiso2avc1mp41
encoder : Lavf54.63.104
Stream #0:0(jpn): Video: mjpeg, yuvj420p, 320x180 [SAR 1:1 DAR 16:9], q=2-31, 200 kb/s, 90k tbn, 1 tbc
Metadata:
creation_time : 1970-01-01 00:00:00
handler_name : VideoHandler
Stream mapping:
Stream #0:0 -> #0:0 (h264 -> mjpeg)
Press [q] to stop, [?] for help
frame= 0 fps=0.0 q=0.0 size=N/A time=00:00:00.00 bitrate=N/A
frame= 0 fps=0.0 q=0.0 size=N/A time=00:00:00.00 bitrate=N/A
frame= 0 fps=0.0 q=0.0 size=N/A time=00:00:00.00 bitrate=N/A
frame= 0 fps=0.0 q=0.0 size=N/A time=00:00:00.00 bitrate=N/A
frame= 0 fps=0.0 q=0.0 size=N/A time=00:00:00.00 bitrate=N/A
frame= 0 fps=0.0 q=0.0 size=N/A time=00:00:00.00 bitrate=N/A
frame= 0 fps=0.0 q=0.0 size=N/A time=00:00:00.00 bitrate=N/A
frame= 0 fps=0.0 q=0.0 size=N/A time=00:00:00.00 bitrate=N/A
frame= 1 fps=0.2 q=0.0 Lsize=N/A time=00:00:01.00 bitrate=N/A
video:4kB audio:0kB subtitle:0 global headers:0kB muxing overhead -100.501482%
ffmpeg version 1.2.2 Copyright © 2000-2013 the FFmpeg developers
built on Aug 16 2013 12:54:44 with gcc 4.6.4 (Gentoo 4.6.4 p1.0, pie-0.5.2)
configuration: --prefix=/usr --libdir=/usr/lib64 --shlibdir=/usr/lib64 --mandir=/usr/share/man --enable-shared --cc=x86_64-pc-linux-gnu-gcc --cxx=x86_64-pc-linux-gnu-g++ --ar=x86_64-pc-linux-gnu-ar --optflags='-O2 -pipe -march=native -mtune=native -msse4.2' --extra-cflags='-O2 -pipe -march=native -mtune=native -msse4.2' --extra-cxxflags='-O2 -pipe -march=native -mtune=native -msse4.2' --disable-static --enable-gpl --enable-postproc --enable-avfilter --enable-avresample --disable-stripping --enable-version3 --disable-indev=v4l2 --disable-indev=alsa --disable-indev=oss --disable-indev=jack --disable-outdev=alsa --disable-outdev=oss --disable-outdev=sdl --enable-bzlib --disable-runtime-cpudetect --disable-debug --disable-doc --disable-gnutls --enable-hardcoded-tables --enable-iconv --disable-network --disable-openssl --disable-ffplay --disable-vaapi --disable-vdpau --enable-zlib --enable-libvo-aacenc --disable-libvo-amrwbenc --enable-libmp3lame --disable-libfdk-aac --disable-libaacplus --disable-libfaac --dis libavutil 52. 18.100 / 52. 18.100
libavcodec 54. 92.100 / 54. 92.100
libavformat 54. 63.104 / 54. 63.104
libavdevice 54. 3.103 / 54. 3.103
libavfilter 3. 42.103 / 3. 42.103
libswscale 2. 2.100 / 2. 2.100
libswresample 0. 17.102 / 0. 17.102
libpostproc 52. 2.100 / 52. 2.100
Input #0, mov,mp4,m4a,3gp,3g2,mj2, from './x2hjF3rw5Ti87yfKasQ87/v/14000677149848839125851.mp4':
Metadata:
major_brand : isom
minor_version : 512
compatible_brands: isomiso2avc1mp41
creation_time : 1970-01-01 00:00:00
encoder : Lavf52.40.0
Duration: 00:22:52.02, start: 0.000000, bitrate: 301 kb/s
Stream #0:0(jpn): Video: h264 (Constrained Baseline) (avc1 / 0x31637661), yuv420p, 320x180 [SAR 1:1 DAR 16:9], 169 kb/s, 23.98 fps, 25 tbr, 25 tbn, 50 tbc
Metadata:
creation_time : 1970-01-01 00:00:00
handler_name : VideoHandler
Stream #0:1(rus): Audio: aac (mp4a / 0x6134706D), 44100 Hz, stereo, fltp, 127 kb/s
Metadata:
creation_time : 1970-01-01 00:00:00
handler_name : SoundHandler
Output #0, image2, to './x2hjF3rw5Ti87yfKasQ87/video_cover/1789769001.jpg':
Metadata:
major_brand : isom
minor_version : 512
compatible_brands: isomiso2avc1mp41
encoder : Lavf54.63.104
Stream #0:0(jpn): Video: mjpeg, yuvj420p, 320x180 [SAR 1:1 DAR 16:9], q=2-31, 200 kb/s, 90k tbn, 1 tbc
Metadata:
creation_time : 1970-01-01 00:00:00
handler_name : VideoHandler
Stream mapping:
Stream #0:0 -> #0:0 (h264 -> mjpeg)
Press [q] to stop, [?] for help
frame= 0 fps=0.0 q=0.0 size=N/A time=00:00:00.00 bitrate=N/A
frame= 0 fps=0.0 q=0.0 size=N/A time=00:00:00.00 bitrate=N/A
frame= 0 fps=0.0 q=0.0 size=N/A time=00:00:00.00 bitrate=N/A
frame= 0 fps=0.0 q=0.0 size=N/A time=00:00:00.00 bitrate=N/A
frame= 0 fps=0.0 q=0.0 size=N/A time=00:00:00.00 bitrate=N/A
frame= 0 fps=0.0 q=0.0 size=N/A time=00:00:00.00 bitrate=N/A
frame= 0 fps=0.0 q=0.0 size=N/A time=00:00:00.00 bitrate=N/A
frame= 0 fps=0.0 q=0.0 size=N/A time=00:00:00.00 bitrate=N/A
frame= 0 fps=0.0 q=0.0 size=N/A time=00:00:00.00 bitrate=N/A
frame= 0 fps=0.0 q=0.0 size=N/A time=00:00:00.00 bitrate=N/A
frame= 0 fps=0.0 q=0.0 size=N/A time=00:00:00.00 bitrate=N/A
frame= 0 fps=0.0 q=0.0 size=N/A time=00:00:00.00 bitrate=N/A
frame= 0 fps=0.0 q=0.0 size=N/A time=00:00:00.00 bitrate=N/A
frame= 0 fps=0.0 q=0.0 size=N/A time=00:00:00.00 bitrate=N/A
frame= 0 fps=0.0 q=0.0 size=N/A time=00:00:00.00 bitrate=N/A
frame= 0 fps=0.0 q=0.0 size=N/A time=00:00:00.00 bitrate=N/A
frame= 0 fps=0.0 q=0.0 size=N/A time=00:00:00.00 bitrate=N/A
frame= 0 fps=0.0 q=0.0 size=N/A time=00:00:00.00 bitrate=N/A
frame= 0 fps=0.0 q=0.0 size=N/A time=00:00:00.00 bitrate=N/A
frame= 0 fps=0.0 q=0.0 size=N/A time=00:00:00.00 bitrate=N/A
frame= 0 fps=0.0 q=0.0 size=N/A time=00:00:00.00 bitrate=N/A
frame= 0 fps=0.0 q=0.0 size=N/A time=00:00:00.00 bitrate=N/A
frame= 0 fps=0.0 q=0.0 size=N/A time=00:00:00.00 bitrate=N/A
frame= 0 fps=0.0 q=0.0 size=N/A time=00:00:00.00 bitrate=N/A
frame= 0 fps=0.0 q=0.0 size=N/A time=00:00:00.00 bitrate=N/A
frame= 1 fps=0.1 q=0.0 Lsize=N/A time=00:00:01.00 bitrate=N/A
video:11kB audio:0kB subtitle:0 global headers:0kB muxing overhead -100.196271%
ffmpeg version 1.2.2 Copyright © 2000-2013 the FFmpeg developers
built on Aug 16 2013 12:54:44 with gcc 4.6.4 (Gentoo 4.6.4 p1.0, pie-0.5.2)
configuration: --prefix=/usr --libdir=/usr/lib64 --shlibdir=/usr/lib64 --mandir=/usr/share/man --enable-shared --cc=x86_64-pc-linux-gnu-gcc --cxx=x86_64-pc-linux-gnu-g++ --ar=x86_64-pc-linux-gnu-ar --optflags='-O2 -pipe -march=native -mtune=native -msse4.2' --extra-cflags='-O2 -pipe -march=native -mtune=native -msse4.2' --extra-cxxflags='-O2 -pipe -march=native -mtune=native -msse4.2' --disable-static --enable-gpl --enable-postproc --enable-avfilter --enable-avresample --disable-stripping --enable-version3 --disable-indev=v4l2 --disable-indev=alsa --disable-indev=oss --disable-indev=jack --disable-outdev=alsa --disable-outdev=oss --disable-outdev=sdl --enable-bzlib --disable-runtime-cpudetect --disable-debug --disable-doc --disable-gnutls --enable-hardcoded-tables --enable-iconv --disable-network --disable-openssl --disable-ffplay --disable-vaapi --disable-vdpau --enable-zlib --enable-libvo-aacenc --disable-libvo-amrwbenc --enable-libmp3lame --disable-libfdk-aac --disable-libaacplus --disable-libfaac --dis libavutil 52. 18.100 / 52. 18.100
libavcodec 54. 92.100 / 54. 92.100
libavformat 54. 63.104 / 54. 63.104
libavdevice 54. 3.103 / 54. 3.103
libavfilter 3. 42.103 / 3. 42.103
libswscale 2. 2.100 / 2. 2.100
libswresample 0. 17.102 / 0. 17.102
libpostproc 52. 2.100 / 52. 2.100
Input #0, mov,mp4,m4a,3gp,3g2,mj2, from './x2hjF3rw5Ti87yfKasQ87/v/14000677149848839125851.mp4':
Metadata:
major_brand : isom
minor_version : 512
compatible_brands: isomiso2avc1mp41
creation_time : 1970-01-01 00:00:00
encoder : Lavf52.40.0
Duration: 00:22:52.02, start: 0.000000, bitrate: 301 kb/s
Stream #0:0(jpn): Video: h264 (Constrained Baseline) (avc1 / 0x31637661), yuv420p, 320x180 [SAR 1:1 DAR 16:9], 169 kb/s, 23.98 fps, 25 tbr, 25 tbn, 50 tbc
Metadata:
creation_time : 1970-01-01 00:00:00
handler_name : VideoHandler
Stream #0:1(rus): Audio: aac (mp4a / 0x6134706D), 44100 Hz, stereo, fltp, 127 kb/s
Metadata:
creation_time : 1970-01-01 00:00:00
handler_name : SoundHandler
Output #0, image2, to './x2hjF3rw5Ti87yfKasQ87/video_cover/1265694271.jpg':
Metadata:
major_brand : isom
minor_version : 512
compatible_brands: isomiso2avc1mp41
encoder : Lavf54.63.104
Stream #0:0(jpn): Video: mjpeg, yuvj420p, 320x180 [SAR 1:1 DAR 16:9], q=2-31, 200 kb/s, 90k tbn, 1 tbc
Metadata:
creation_time : 1970-01-01 00:00:00
handler_name : VideoHandler
Stream mapping:
Stream #0:0 -> #0:0 (h264 -> mjpeg)
Press [q] to stop, [?] for help
frame= 0 fps=0.0 q=0.0 size=N/A time=00:00:00.00 bitrate=N/A
frame= 0 fps=0.0 q=0.0 size=N/A time=00:00:00.00 bitrate=N/A
frame= 0 fps=0.0 q=0.0 size=N/A time=00:00:00.00 bitrate=N/A
frame= 0 fps=0.0 q=0.0 size=N/A time=00:00:00.00 bitrate=N/A
frame= 0 fps=0.0 q=0.0 size=N/A time=00:00:00.00 bitrate=N/A
frame= 0 fps=0.0 q=0.0 size=N/A time=00:00:00.00 bitrate=N/A
frame= 0 fps=0.0 q=0.0 size=N/A time=00:00:00.00 bitrate=N/A
frame= 0 fps=0.0 q=0.0 size=N/A time=00:00:00.00 bitrate=N/A
frame= 0 fps=0.0 q=0.0 size=N/A time=00:00:00.00 bitrate=N/A
frame= 0 fps=0.0 q=0.0 size=N/A time=00:00:00.00 bitrate=N/A
frame= 0 fps=0.0 q=0.0 size=N/A time=00:00:00.00 bitrate=N/A
frame= 0 fps=0.0 q=0.0 size=N/A time=00:00:00.00 bitrate=N/A
frame= 0 fps=0.0 q=0.0 size=N/A time=00:00:00.00 bitrate=N/A
frame= 0 fps=0.0 q=0.0 size=N/A time=00:00:00.00 bitrate=N/A
frame= 0 fps=0.0 q=0.0 size=N/A time=00:00:00.00 bitrate=N/A
frame= 0 fps=0.0 q=0.0 size=N/A time=00:00:00.00 bitrate=N/A
frame= 0 fps=0.0 q=0.0 size=N/A time=00:00:00.00 bitrate=N/A
frame= 0 fps=0.0 q=0.0 size=N/A time=00:00:00.00 bitrate=N/A
frame= 0 fps=0.0 q=0.0 size=N/A time=00:00:00.00 bitrate=N/A
frame= 0 fps=0.0 q=0.0 size=N/A time=00:00:00.00 bitrate=N/A
frame= 0 fps=0.0 q=0.0 size=N/A time=00:00:00.00 bitrate=N/A
frame= 0 fps=0.0 q=0.0 size=N/A time=00:00:00.00 bitrate=N/A
frame= 0 fps=0.0 q=0.0 size=N/A time=00:00:00.00 bitrate=N/A
frame= 0 fps=0.0 q=0.0 size=N/A time=00:00:00.00 bitrate=N/A
frame= 0 fps=0.0 q=0.0 size=N/A time=00:00:00.00 bitrate=N/A
frame= 0 fps=0.0 q=0.0 size=N/A time=00:00:00.00 bitrate=N/A
frame= 0 fps=0.0 q=0.0 size=N/A time=00:00:00.00 bitrate=N/A
frame= 0 fps=0.0 q=0.0 size=N/A time=00:00:00.00 bitrate=N/A
frame= 0 fps=0.0 q=0.0 size=N/A time=00:00:00.00 bitrate=N/A
frame= 0 fps=0.0 q=0.0 size=N/A time=00:00:00.00 bitrate=N/A
frame= 0 fps=0.0 q=0.0 size=N/A time=00:00:00.00 bitrate=N/A
frame= 0 fps=0.0 q=0.0 size=N/A time=00:00:00.00 bitrate=N/A
frame= 0 fps=0.0 q=0.0 size=N/A time=00:00:00.00 bitrate=N/A
frame= 0 fps=0.0 q=0.0 size=N/A time=00:00:00.00 bitrate=N/A
frame= 0 fps=0.0 q=0.0 size=N/A time=00:00:00.00 bitrate=N/A
frame= 0 fps=0.0 q=0.0 size=N/A time=00:00:00.00 bitrate=N/A
frame= 0 fps=0.0 q=0.0 size=N/A time=00:00:00.00 bitrate=N/A
frame= 0 fps=0.0 q=0.0 size=N/A time=00:00:00.00 bitrate=N/A
frame= 0 fps=0.0 q=0.0 size=N/A time=00:00:00.00 bitrate=N/A
frame= 0 fps=0.0 q=0.0 size=N/A time=00:00:00.00 bitrate=N/A
frame= 0 fps=0.0 q=0.0 size=N/A time=00:00:00.00 bitrate=N/A
frame= 0 fps=0.0 q=0.0 size=N/A time=00:00:00.00 bitrate=N/A
frame= 0 fps=0.0 q=0.0 size=N/A time=00:00:00.00 bitrate=N/A
frame= 0 fps=0.0 q=0.0 size=N/A time=00:00:00.00 bitrate=N/A
frame= 0 fps=0.0 q=0.0 size=N/A time=00:00:00.00 bitrate=N/A
frame= 0 fps=0.0 q=0.0 size=N/A time=00:00:00.00 bitrate=N/A
frame= 0 fps=0.0 q=0.0 size=N/A time=00:00:00.00 bitrate=N/A
frame= 0 fps=0.0 q=0.0 size=N/A time=00:00:00.00 bitrate=N/A
frame= 1 fps=0.0 q=0.0 Lsize=N/A time=00:00:01.00 bitrate=N/A
video:6kB audio:0kB subtitle:0 global headers:0kB muxing overhead -100.343857%
ffmpeg version 1.2.2 Copyright © 2000-2013 the FFmpeg developers
built on Aug 16 2013 12:54:44 with gcc 4.6.4 (Gentoo 4.6.4 p1.0, pie-0.5.2)
configuration: --prefix=/usr --libdir=/usr/lib64 --shlibdir=/usr/lib64 --mandir=/usr/share/man --enable-shared --cc=x86_64-pc-linux-gnu-gcc --cxx=x86_64-pc-linux-gnu-g++ --ar=x86_64-pc-linux-gnu-ar --optflags='-O2 -pipe -march=native -mtune=native -msse4.2' --extra-cflags='-O2 -pipe -march=native -mtune=native -msse4.2' --extra-cxxflags='-O2 -pipe -march=native -mtune=native -msse4.2' --disable-static --enable-gpl --enable-postproc --enable-avfilter --enable-avresample --disable-stripping --enable-version3 --disable-indev=v4l2 --disable-indev=alsa --disable-indev=oss --disable-indev=jack --disable-outdev=alsa --disable-outdev=oss --disable-outdev=sdl --enable-bzlib --disable-runtime-cpudetect --disable-debug --disable-doc --disable-gnutls --enable-hardcoded-tables --enable-iconv --disable-network --disable-openssl --disable-ffplay --disable-vaapi --disable-vdpau --enable-zlib --enable-libvo-aacenc --disable-libvo-amrwbenc --enable-libmp3lame --disable-libfdk-aac --disable-libaacplus --disable-libfaac --dis libavutil 52. 18.100 / 52. 18.100
libavcodec 54. 92.100 / 54. 92.100
libavformat 54. 63.104 / 54. 63.104
libavdevice 54. 3.103 / 54. 3.103
libavfilter 3. 42.103 / 3. 42.103
libswscale 2. 2.100 / 2. 2.100
libswresample 0. 17.102 / 0. 17.102
libpostproc 52. 2.100 / 52. 2.100
Input #0, mov,mp4,m4a,3gp,3g2,mj2, from './x2hjF3rw5Ti87yfKasQ87/v/14000677149848839125851.mp4':
Metadata:
major_brand : isom
minor_version : 512
compatible_brands: isomiso2avc1mp41
creation_time : 1970-01-01 00:00:00
encoder : Lavf52.40.0
Duration: 00:22:52.02, start: 0.000000, bitrate: 301 kb/s
Stream #0:0(jpn): Video: h264 (Constrained Baseline) (avc1 / 0x31637661), yuv420p, 320x180 [SAR 1:1 DAR 16:9], 169 kb/s, 23.98 fps, 25 tbr, 25 tbn, 50 tbc
Metadata:
creation_time : 1970-01-01 00:00:00
handler_name : VideoHandler
Stream #0:1(rus): Audio: aac (mp4a / 0x6134706D), 44100 Hz, stereo, fltp, 127 kb/s
Metadata:
creation_time : 1970-01-01 00:00:00
handler_name : SoundHandler
Output #0, image2, to './x2hjF3rw5Ti87yfKasQ87/video_cover/1886555420.jpg':
Metadata:
major_brand : isom
minor_version : 512
compatible_brands: isomiso2avc1mp41
encoder : Lavf54.63.104
Stream #0:0(jpn): Video: mjpeg, yuvj420p, 320x180 [SAR 1:1 DAR 16:9], q=2-31, 200 kb/s, 90k tbn, 1 tbc
Metadata:
creation_time : 1970-01-01 00:00:00
handler_name : VideoHandler
Stream mapping:
Stream #0:0 -> #0:0 (h264 -> mjpeg)
Press [q] to stop, [?] for help
frame= 0 fps=0.0 q=0.0 size=N/A time=00:00:00.00 bitrate=N/A
frame= 0 fps=0.0 q=0.0 size=N/A time=00:00:00.00 bitrate=N/A
frame= 0 fps=0.0 q=0.0 size=N/A time=00:00:00.00 bitrate=N/A
frame= 0 fps=0.0 q=0.0 size=N/A time=00:00:00.00 bitrate=N/A
frame= 0 fps=0.0 q=0.0 size=N/A time=00:00:00.00 bitrate=N/A
frame= 0 fps=0.0 q=0.0 size=N/A time=00:00:00.00 bitrate=N/A
frame= 0 fps=0.0 q=0.0 size=N/A time=00:00:00.00 bitrate=N/A
frame= 0 fps=0.0 q=0.0 size=N/A time=00:00:00.00 bitrate=N/A
frame= 0 fps=0.0 q=0.0 size=N/A time=00:00:00.00 bitrate=N/A
frame= 0 fps=0.0 q=0.0 size=N/A time=00:00:00.00 bitrate=N/A
frame= 0 fps=0.0 q=0.0 size=N/A time=00:00:00.00 bitrate=N/A
frame= 0 fps=0.0 q=0.0 size=N/A time=00:00:00.00 bitrate=N/A
frame= 0 fps=0.0 q=0.0 size=N/A time=00:00:00.00 bitrate=N/A
frame= 0 fps=0.0 q=0.0 size=N/A time=00:00:00.00 bitrate=N/A
frame= 0 fps=0.0 q=0.0 size=N/A time=00:00:00.00 bitrate=N/A
frame= 0 fps=0.0 q=0.0 size=N/A time=00:00:00.00 bitrate=N/A
frame= 0 fps=0.0 q=0.0 size=N/A time=00:00:00.00 bitrate=N/A
frame= 0 fps=0.0 q=0.0 size=N/A time=00:00:00.00 bitrate=N/A
frame= 0 fps=0.0 q=0.0 size=N/A time=00:00:00.00 bitrate=N/A
frame= 0 fps=0.0 q=0.0 size=N/A time=00:00:00.00 bitrate=N/A
frame= 0 fps=0.0 q=0.0 size=N/A time=00:00:00.00 bitrate=N/A
frame= 0 fps=0.0 q=0.0 size=N/A time=00:00:00.00 bitrate=N/A
frame= 0 fps=0.0 q=0.0 size=N/A time=00:00:00.00 bitrate=N/A
frame= 0 fps=0.0 q=0.0 size=N/A time=00:00:00.00 bitrate=N/A
frame= 0 fps=0.0 q=0.0 size=N/A time=00:00:00.00 bitrate=N/A
frame= 0 fps=0.0 q=0.0 size=N/A time=00:00:00.00 bitrate=N/A
frame= 0 fps=0.0 q=0.0 size=N/A time=00:00:00.00 bitrate=N/A
frame= 0 fps=0.0 q=0.0 size=N/A time=00:00:00.00 bitrate=N/A
frame= 0 fps=0.0 q=0.0 size=N/A time=00:00:00.00 bitrate=N/A
frame= 0 fps=0.0 q=0.0 size=N/A time=00:00:00.00 bitrate=N/A
frame= 0 fps=0.0 q=0.0 size=N/A time=00:00:00.00 bitrate=N/A
frame= 0 fps=0.0 q=0.0 size=N/A time=00:00:00.00 bitrate=N/A
frame= 0 fps=0.0 q=0.0 size=N/A time=00:00:00.00 bitrate=N/A
frame= 0 fps=0.0 q=0.0 size=N/A time=00:00:00.00 bitrate=N/A
frame= 0 fps=0.0 q=0.0 size=N/A time=00:00:00.00 bitrate=N/A
frame= 0 fps=0.0 q=0.0 size=N/A time=00:00:00.00 bitrate=N/A
frame= 0 fps=0.0 q=0.0 size=N/A time=00:00:00.00 bitrate=N/A
frame= 0 fps=0.0 q=0.0 size=N/A time=00:00:00.00 bitrate=N/A
frame= 0 fps=0.0 q=0.0 size=N/A time=00:00:00.00 bitrate=N/A
frame= 0 fps=0.0 q=0.0 size=N/A time=00:00:00.00 bitrate=N/A
frame= 0 fps=0.0 q=0.0 size=N/A time=00:00:00.00 bitrate=N/A
frame= 0 fps=0.0 q=0.0 size=N/A time=00:00:00.00 bitrate=N/A
frame= 0 fps=0.0 q=0.0 size=N/A time=00:00:00.00 bitrate=N/A
frame= 0 fps=0.0 q=0.0 size=N/A time=00:00:00.00 bitrate=N/A
frame= 0 fps=0.0 q=0.0 size=N/A time=00:00:00.00 bitrate=N/A
frame= 0 fps=0.0 q=0.0 size=N/A time=00:00:00.00 bitrate=N/A
frame= 0 fps=0.0 q=0.0 size=N/A time=00:00:00.00 bitrate=N/A
frame= 0 fps=0.0 q=0.0 size=N/A time=00:00:00.00 bitrate=N/A
frame= 0 fps=0.0 q=0.0 size=N/A time=00:00:00.00 bitrate=N/A
frame= 0 fps=0.0 q=0.0 size=N/A time=00:00:00.00 bitrate=N/A
frame= 0 fps=0.0 q=0.0 size=N/A time=00:00:00.00 bitrate=N/A
frame= 0 fps=0.0 q=0.0 size=N/A time=00:00:00.00 bitrate=N/A
frame= 0 fps=0.0 q=0.0 size=N/A time=00:00:00.00 bitrate=N/A
frame= 0 fps=0.0 q=0.0 size=N/A time=00:00:00.00 bitrate=N/A
frame= 0 fps=0.0 q=0.0 size=N/A time=00:00:00.00 bitrate=N/A
frame= 0 fps=0.0 q=0.0 size=N/A time=00:00:00.00 bitrate=N/A
frame= 0 fps=0.0 q=0.0 size=N/A time=00:00:00.00 bitrate=N/A
frame= 0 fps=0.0 q=0.0 size=N/A time=00:00:00.00 bitrate=N/A
frame= 0 fps=0.0 q=0.0 size=N/A time=00:00:00.00 bitrate=N/A
frame= 0 fps=0.0 q=0.0 size=N/A time=00:00:00.00 bitrate=N/A
frame= 0 fps=0.0 q=0.0 size=N/A time=00:00:00.00 bitrate=N/A
frame= 0 fps=0.0 q=0.0 size=N/A time=00:00:00.00 bitrate=N/A
frame= 0 fps=0.0 q=0.0 size=N/A time=00:00:00.00 bitrate=N/A
frame= 0 fps=0.0 q=0.0 size=N/A time=00:00:00.00 bitrate=N/A
frame= 0 fps=0.0 q=0.0 size=N/A time=00:00:00.00 bitrate=N/A
frame= 0 fps=0.0 q=0.0 size=N/A time=00:00:00.00 bitrate=N/A
frame= 0 fps=0.0 q=0.0 size=N/A time=00:00:00.00 bitrate=N/A
frame= 0 fps=0.0 q=0.0 size=N/A time=00:00:00.00 bitrate=N/A
frame= 0 fps=0.0 q=0.0 size=N/A time=00:00:00.00 bitrate=N/A
frame= 0 fps=0.0 q=0.0 size=N/A time=00:00:00.00 bitrate=N/A
frame= 0 fps=0.0 q=0.0 size=N/A time=00:00:00.00 bitrate=N/A
frame= 0 fps=0.0 q=0.0 size=N/A time=00:00:00.00 bitrate=N/A
frame= 0 fps=0.0 q=0.0 size=N/A time=00:00:00.00 bitrate=N/A
frame= 1 fps=0.0 q=0.0 Lsize=N/A time=00:00:01.00 bitrate=N/A
video:8kB audio:0kB subtitle:0 global headers:0kB muxing overhead -100.270204%

и т.д.... Я так понимаю ffmpeg начал бесконечное количество раз, после основного конвертирования, конвертирует тоже самое. От чего такая фигня появилась и как ее исправить, кто знает?
Спасибо сказали:
Аватара пользователя
kpocobok
Сообщения: 92

Re: ffmpeg avi во флеш

Сообщение kpocobok »

SCRIPT7002: XMLHttpRequest: Сетевая ошибка 0x2ef3, Не удалось завершить действие. Ошибка 00002ef3.

Вот что пишет в консоле ошибок браузера. Уже 3 день бьюсь.
Спасибо сказали:
Аватара пользователя
kpocobok
Сообщения: 92

Re: ffmpeg avi во флеш

Сообщение kpocobok »

Нашел проблему. Во время загрузки и на всем ее протяжении Аякса подает запросы на сервер и ожидает ответа для индикации анимации загрузки, так же и конвертации с помощью ffmpeg. После конвертации начинается нарезка кадров. Именно в ней и была ошибка. Из-за того что она проходила очень долго и в ответ на запрос Аяксу возвращался нуль время запроса заканчивалось и был разрыв соединения.
Спасибо сказали: